MEGA SALE -75% Borderlands 3 Super Deluxe всего за 550р. 180 руб. (супер цена). Внимание количество ограничено!!!

iTunes

1+1

iTunes

мы

iTunes

1

iTunes

Чернобыль

iTunes

Ральф против интернета

Лицензия

ПШазам

Лицензия

Игра престолов

Лицензия

30
pack

ВАЖНО

!!Акция!!

Alien_RageХит недели

RePack

Resident Evil 21

ИГРА 18+

pack

RePack

Metro:Exodus

!!Акция!!

Alien_Rage

RePack

fifa19

RePack

Assassins Creed: Odyssey

RePack

NEED FOR SPEED™ PAYBACK

3 сезон

9 сезон

Бесстыжие 9 сезон

Все сериалы

все сериалы на PB.wtf

RePack

FAR CRY 5
Ребята, катастрофически не хватает 1900р. для оплаты серверов за АВГУСТ (всвязи с блокировками трафик упал в 3 раза), 1-2р., выручайте.
  

Дейв / Dave (Айвэн Рейтмен) [1993, мелодрама, комедия, BDRip-AVC] DUB, MVO, 2 x AVO pb.wtf

Дейв через торрент pb.wtf

Размер: 3.45 GB | Добавлен: 4 года 6 мес. назад | Торрент скачан:69 раз
Скачать  

21-03-2015 06:10 Дейв Скачать торрент  

Дейв / Dave

Год выпуска: 1993
Страна: США
Жанр: мелодрама, комедия
Продолжительность: 01:49:54
Перевод: дублированный, профессиональный многоголосый, авторский
Субтитры: русские, английские (для слабослышащих)

Режиссёр: Айвэн Рейтмен

В ролях: Кевин Клайн, Сигурни Уивер, Фрэнк Ланджелла, Винг Рэймс, Бен Кингсли, Кевин Данн, Чарльз Гродин, Фэйт Принс, Лора Линни, Бонни Хант, Парли Баэр, Стефан Гираш, Анна Дивер Смит, Чарльз Хэллахан, Том Дуган, Стив Уиттинг, Келлен Сэмпсон, Лекси Бигхем, Стивен Рут, Катрин Рейтман, Марианна Харрис, Сара Маршалл, Ральф Манза, Джордж Мартин, Лори Фрэнкс, Том Курландер, Дендри Тейлор, Джо Курода, Женевьева Роберт, Джейсон Рейтмен, Фрэнк Бирни, Пол Коллинз, Питер Уайт, Робин Гэммел, Хезер Хьюит, Гэри Росс, Джеффри Джозеф, Бонни Бартлетт, Роберт Уолш, Уильям Питтс, Дэн Батлер, Венди Гордон, Бен Патрик Джонсон, Стив Км

Описание: Во время официальной поездки президента Соединённых Штатов Митчелла хватил удар. Да так не вовремя! Это случилось, когда Митчелл развлекался со своей любовницей. Помощники президента Алан Рид и Боб Александер обратились к Дейву Ковику, успешно руководившему агентством по найму, заменить президента на время его болезни. Дело в том, что действующий президент и Дейв похожи, как две капли воды… Амбициозные помощники решили не сообщать общественности о серьёзном недуге президента для того, чтобы претворить в жизнь и узаконить некоторые положения, выгодные лично для них. Так, с помощью Дейва они думали расправиться с вице-президентом, «похоронить» билль, гарантирующий рядовым американцам социальные привилегии, но не тут-то было! Дейв — порядочный и очень добрый человек. Он быстро разобрался, что к чему...



Качество: BDRip-AVC Сравнение с исходником
Формат: MKV
Видео кодек: H.264
Аудио кодек: AC3
Видео: 3448 Кбит/с, 1024х576, 23.976 кадра/с, 0.244 bpp
Аудио 1: русский, AC3, 192 kbps, 2 ch, 48 kHz [дублированный]
Аудио 2: русский, AC3, 192 kbps, 2 ch, 48 kHz [профессиональный многоголосый, НТВ]
Аудио 3: русский, AC3, 192 kbps, 2 ch, 48 kHz [авторский, Сергей Визгунов]
Аудио 4: русский, AC3, 192 kbps, 2 ch, 48 kHz [авторский, Антон Дольский]
Аудио 5: английский, AC3, 192 kbps, 2 ch, 48 kHz [оригинал]

Имеются неименованные главы/чаптеры.
Оскар, 1994 год
Номинации (1):
Лучший сценарий

Золотой глобус, 1994 год
Номинации (2):
Лучший фильм (комедия или мюзикл)
Лучшая мужская роль (комедия или мюзикл) (Кевин Клайн)
frame I:1207 Avg QP:18.44 size: 83704
frame P:30375 Avg QP:19.94 size: 35932
frame B:126507 Avg QP:22.04 size: 13604

Общее
Уникальный идентификатор : 174948357794816333055216865613956344910 (0x839DD3FE59E66DA78FF6B90808796C4E)
Полное имя : D:VideoDave.1993.BDRip.AVC.mkv
Формат : Matroska
Версия формата : Version 4 / Version 2
Размер файла : 3,45 Гбайт
Продолжительность : 1 ч. 49 м.
Общий поток : 4497 Кбит/сек
Дата кодирования : UTC 2015-03-20 10:47:25
Программа кодирования : mkvmerge v7.7.0 ('Six Voices') 64bit built on Feb 28 2015 23:39:33
Библиотека кодирования : libebml v1.3.1 + libmatroska v1.4.2
DURATION : 01:43:18.692000000
NUMBER_OF_FRAMES : 1551
NUMBER_OF_BYTES : 55610
_STATISTICS_WRITING_APP : mkvmerge v7.7.0 ('Six Voices') 64bit built on Feb 28 2015 23:39:33
_STATISTICS_WRITING_DATE_UTC : 2015-03-20 10:47:25
_STATISTICS_TAGS : BPS DURATION NUMBER_OF_FRAMES NUMBER_OF_BYTES

Видео
Идентификатор : 1
Формат : AVC
Формат/Информация : Advanced Video Codec
Профиль формата : High@L4.1
Параметр CABAC формата : Да
Параметр ReFrames формата : 9 кадров
Идентификатор кодека : V_MPEG4/ISO/AVC
Продолжительность : 1 ч. 49 м.
Битрейт : 3448 Кбит/сек
Ширина : 1024 пикселя
Высота : 576 пикселей
Соотношение сторон : 16:9
Режим частоты кадров : Постоянный
Частота кадров : 23,976 кадра/сек
Цветовое пространство : YUV
Субдискретизация насыщенности : 4:2:0
Битовая глубина : 8 бит
Тип развёртки : Прогрессивная
Бит/(Пиксели*Кадры) : 0.244
Размер потока : 2,65 Гбайт (77%)
Заголовок : BDRip -- STarankov
Библиотека кодирования : x264 core 142 r2431 ac76440
Настройки программы : cabac=1 / ref=9 / deblock=1:-2:-2 / analyse=0x3:0x113 / me=umh / subme=10 / psy=1 / psy_rd=1.00:0.15 / mixed_ref=1 / me_range=32 / chroma_me=1 / trellis=2 / 8x8dct=1 / cqm=0 / deadzone=21,11 / fast_pskip=1 / chroma_qp_offset=-3 / threads=6 / lookahead_threads=1 / sliced_threads=0 / nr=0 / decimate=1 / interlaced=0 / bluray_compat=0 / constrained_intra=0 / bframes=8 / b_pyramid=2 / b_adapt=2 / b_bias=0 / direct=3 / weightb=1 / open_gop=0 / weightp=2 / keyint=230 / keyint_min=23 / scenecut=40 / intra_refresh=0 / rc_lookahead=40 / rc=crf / mbtree=0 / crf=19.0 / qcomp=0.60 / qpmin=0 / qpmax=69 / qpstep=4 / vbv_maxrate=40000 / vbv_bufsize=50000 / crf_max=0.0 / nal_hrd=none / filler=0 / ip_ratio=1.40 / pb_ratio=1.30 / aq=1:1.00
Язык : English
Default : Да
Forced : Нет
DURATION : 01:49:53.629000000
NUMBER_OF_FRAMES : 158089
NUMBER_OF_BYTES : 2913509516
_STATISTICS_WRITING_APP : mkvmerge v7.7.0 ('Six Voices') 64bit built on Feb 28 2015 23:39:33
_STATISTICS_WRITING_DATE_UTC : 2015-03-20 10:47:25
_STATISTICS_TAGS : BPS DURATION NUMBER_OF_FRAMES NUMBER_OF_BYTES

Аудио #1
Идентификатор : 2
Формат : AC-3
Формат/Информация : Audio Coding 3
Расширение режима : CM (complete main)
Параметр Endianness формата : Big
Идентификатор кодека : A_AC3
Продолжительность : 1 ч. 49 м.
Вид битрейта : Постоянный
Битрейт : 192 Кбит/сек
Каналы : 2 канала
Расположение каналов : Front: L R
Частота : 48,0 КГц
Битовая глубина : 16 бит
Метод сжатия : С потерями
Размер потока : 151 Мбайт (4%)
Заголовок : DUB (Варус видео)
Язык : Russian
Default : Да
Forced : Нет

Аудио #2
Идентификатор : 3
Формат : AC-3
Формат/Информация : Audio Coding 3
Расширение режима : CM (complete main)
Параметр Endianness формата : Big
Идентификатор кодека : A_AC3
Продолжительность : 1 ч. 49 м.
Вид битрейта : Постоянный
Битрейт : 192 Кбит/сек
Каналы : 2 канала
Расположение каналов : Front: L R
Частота : 48,0 КГц
Битовая глубина : 16 бит
Метод сжатия : С потерями
Размер потока : 151 Мбайт (4%)
Заголовок : MVO (HTB)
Язык : Russian
Default : Нет
Forced : Нет

Аудио #3
Идентификатор : 4
Формат : AC-3
Формат/Информация : Audio Coding 3
Расширение режима : CM (complete main)
Параметр Endianness формата : Big
Идентификатор кодека : A_AC3
Продолжительность : 1 ч. 49 м.
Вид битрейта : Постоянный
Битрейт : 192 Кбит/сек
Каналы : 2 канала
Расположение каналов : Front: L R
Частота : 48,0 КГц
Битовая глубина : 16 бит
Метод сжатия : С потерями
Размер потока : 151 Мбайт (4%)
Заголовок : AVO (Сергей Визгунов)
Язык : Russian
Default : Нет
Forced : Нет

Аудио #4
Идентификатор : 5
Формат : AC-3
Формат/Информация : Audio Coding 3
Расширение режима : CM (complete main)
Параметр Endianness формата : Big
Идентификатор кодека : A_AC3
Продолжительность : 1 ч. 49 м.
Вид битрейта : Постоянный
Битрейт : 192 Кбит/сек
Каналы : 2 канала
Расположение каналов : Front: L R
Частота : 48,0 КГц
Битовая глубина : 16 бит
Метод сжатия : С потерями
Размер потока : 151 Мбайт (4%)
Заголовок : AVO (Антон Дольский)
Язык : Russian
Default : Нет
Forced : Нет

Аудио #5
Идентификатор : 6
Формат : AC-3
Формат/Информация : Audio Coding 3
Расширение режима : CM (complete main)
Параметр Endianness формата : Big
Идентификатор кодека : A_AC3
Продолжительность : 1 ч. 49 м.
Вид битрейта : Постоянный
Битрейт : 192 Кбит/сек
Каналы : 2 канала
Расположение каналов : Front: L R
Частота : 48,0 КГц
Битовая глубина : 16 бит
Метод сжатия : С потерями
Размер потока : 151 Мбайт (4%)
Заголовок : Original
Язык : English
Default : Нет
Forced : Нет

Текст #1
Идентификатор : 7
Формат : UTF-8
Идентификатор кодека : S_TEXT/UTF8
Идентификатор кодека/Информация : UTF-8 Plain Text
Заголовок : русские
Язык : Russian
Default : Нет
Forced : Нет

Текст #2
Идентификатор : 8
Формат : UTF-8
Идентификатор кодека : S_TEXT/UTF8
Идентификатор кодека/Информация : UTF-8 Plain Text
Заголовок : английские (для слабослышащих)
Default : Нет
Forced : Нет

Меню
00:00:00.000 : :Chapter 01
00:03:17.322 : :Chapter 02
00:05:19.568 : :Chapter 03
00:07:23.276 : :Chapter 04
00:08:56.493 : :Chapter 05
00:15:33.057 : :Chapter 06
00:19:03.768 : :Chapter 07
00:25:33.197 : :Chapter 08
00:33:48.777 : :Chapter 09
00:36:43.701 : :Chapter 10
00:40:51.157 : :Chapter 11
00:43:27.813 : :Chapter 12
00:48:47.340 : :Chapter 13
00:52:33.233 : :Chapter 14
00:55:01.465 : :Chapter 15
01:01:55.253 : :Chapter 16
01:06:06.753 : :Chapter 17
01:12:36.644 : :Chapter 18
01:16:53.067 : :Chapter 19
01:22:12.386 : :Chapter 20
01:24:11.002 : :Chapter 21
01:26:23.720 : :Chapter 22
01:32:25.037 : :Chapter 23
01:38:42.957 : :Chapter 24
01:41:19.988 : :Chapter 25
01:43:19.274 : :Chapter 26
01:45:32.743 : :Chapter 27
pb.wtf



Скачать Дейв через торрент http://i59.fastpic.ru/big/2015/0321/3f/31656062d55d82772265a4e94d1a193f.jpg Скачать фильм Дейв через торрент бесплантно в хорошем качестве Описание: Во время официальной поездки президента Соединённых Штатов Митчелла хватил удар. Да так не вовремя! Это случилось, когда Митчелл ... 8.2 10 5
Торрент: Зарегистрирован [2015-03-21 06:10] · скачан: 69 раз
Статус: √ проверено
Размер: 3.45 GB
Как cкачать? Как скачать Дейв через торрент | qTorrent

% Раздел Тема Автор DL S | L
Фильмы [HD 720p, 1080p] (Хороший звук DUB, MVO) [ 5.65 GB ] Дейв / Dave [1993 BDRip 720p] DUB MVO 2 x AVO msltel Скачать
1 | 0


>> Регистрируемся здесь <<






Отзывы и комментарии о схеме читаем и пишем здесь: ---> Отзывы и комментарии о схеме

Новые благодарочки в телеграм довольных пользователей:
скриншот   скриншот   скриншот   скриншот   скриншот
    Дорогой пользователь! Огромная просьба, поблагодарите релизера, оцените раздачу и оставьте свои комментарий, если Вы скачали Дейв через торрент бесплатно! Внесите свою лепту в развитие PiratBit!
    Комментировать посты могут только пользователи прошедшие не сложную регистрацию
    Показать сообщения:    

    Дейв через торрент
    Скачать бесплатно Дейв
    Дейв скачать торрент
    Дейв смотреть онлайн
    Cкачать фильм Дейв бесплатно
    Дейв скачать торрент в хорошем качестве
    Дейв смотреть онлайн бесплатно в хорошем качестве


    Вы не можете начинать темы
    Вы не можете отвечать на сообщения
    Вы не можете редактировать свои сообщения
    Вы не можете удалять свои сообщения
    Вы не можете голосовать в опросах
    Вы не можете прикреплять файлы к сообщениям
    Вы можете скачивать файлы