Ссылка на приватное зеркало нашего сайта всего за 1$. Внимание количество ограничено!!!

2 сезон

iTunes

1 сезон

1

iTunes

iTunes

iTunes

1 сезон

RePack

30

ИГРА 18+

pack

ВАЖНО

!!Акция!!

Alien_RageХит недели

RePack

MK11
pack

Забери бонус

RePack

jed

!!Акция!!

Alien_Rage

RePack

fifa19

RePack

Assassins Creed: Odyssey

RePack

NEED FOR SPEED™ PAYBACK

4 сезон

9 сезон

Бесстыжие 9 сезон

Все сериалы

все сериалы на PB.wtf

RePack

FAR CRY 5
  

Вдали от безумной толпы / Far from the Madding Crowd (Джон Шлезингер) [1967, драма, мелодрама, BDRip 720p] MVO pb.wtf

Вдали от безумной толпы через торрент pb.wtf

Размер: 6.37 GB | Добавлен: 5 лет 6 мес. назад | Торрент скачан:17 раз
Скачать  

21-03-2015 08:35 Вдали от безумной толпы Скачать торрент  

Вдали от безумной толпы / Far from the Madding Crowd

Год выпуска: 1967
Страна: Великобритания
Жанр: драма, мелодрама
Продолжительность: 02:50:40
Перевод: профессиональный многоголосый
Субтитры: английские (для слабослышащих)

Режиссёр: Джон Шлезингер

В ролях: Джули Кристи, Теренс Стэмп, Питер Финч, Алан Бэйтс, Прунелла Рэнсом, Файона Уокер, Пол Доукинс, Эндрю Робертсон, Джон Бэрретт, Джулиэн Сомерс

Описание: Унаследовав от дядюшки богатую ферму, юная Батшиба Эвердин энергично берётся за дело, набрав себе рабочих. Берёт она и разорившегося фермера Габриэла Оука — человека опытного и честного. Габриэл в своё время просил её руки, но потерпел неудачу. Теперь ей предлагает руку и сердце сосед, зажиточный фермер Уильям Болдвуд, но своенравная Батшиба пока не соглашается стать женой, выговорив себе время на раздумья. Встреча с самовлюблённым красавцем сержантом Френком Троем становится роковой для Батшибы. Она безоглядно влюбляется, и вскоре сержант, только что бросивший свою любимую девушку Фанни Робин, становится её мужем. Через 9 месяцев рядом с домом Батшибы Трой встречает Фанни — изможденную, бездомную и больную. Он обещает позаботиться о ней и назначает ей свидание в городе на следующий день. Взяв у Батшибы деньги, он приезжает, но Фанни не приходит: она умирает во время родов, произведя на свет мёртвого ребенка Френка. Френк говорит Батшибе, что любит только Фанни, даже мёртвую. Он хоронит Фанни и ребёнка, а сам едет к морю и исчезает. В море находят его вещи, и все решают, что он утонул... Фильм снят по мотивам романа Томаса Гарди «Вдали от обезумевшей толпы» (Far From The Madding Crowd, 1874).



Качество: BDRip 720p Сравнение с исходником
Формат: MKV
Видео кодек: H.264
Аудио кодек: AC3
Видео: 4594 Кбит/с, 1280x532, 23.976 кадра/с, 0.281 bpp
Аудио 1: русский, AC3, 192 kbps, 2 ch, 48 kHz [профессиональный многоголосый]
Аудио 2: английский, AC3, 448 kbps, 6 ch, 48 kHz [оригинал]

Имеются неименованные главы/чаптеры.
Оскар, 1968 год
Номинации (1):
Лучший саундтрек

Золотой глобус, 1968 год
Номинации (3):
Лучшая мужская роль (драма) (Алан Бейтс)
Лучший фильм (драма)
Лучшая женская роль второго плана (Прунелла Рэнсом)

Британская академия, 1968 год
Номинации (2):
Лучшая работа оператора (цветные фильмы)
Лучшая работа художника по костюмам (цветные фильмы)
frame I:1782 Avg QP:19.50 size: 99118
frame P:48147 Avg QP:20.84 size: 42921
frame B:195591 Avg QP:22.80 size: 19275

Общее
Уникальный идентификатор : 176277401572735606005294557117838262566 (0x849DCAE931DF7B8C93DDD52279840126)
Полное имя : D:VideoVdali ot bezumnoj tolpy.1967.BDRip.720p.mkv
Формат : Matroska
Версия формата : Version 4 / Version 2
Размер файла : 6,37 Гбайт
Продолжительность : 2 ч. 50 м.
Общий поток : 5340 Кбит/сек
Дата кодирования : UTC 2015-03-21 03:46:06
Программа кодирования : mkvmerge v7.7.0 ('Six Voices') 64bit built on Feb 28 2015 23:39:33
Библиотека кодирования : libebml v1.3.1 + libmatroska v1.4.2
DURATION : 02:43:16.035000000
NUMBER_OF_FRAMES : 1547
NUMBER_OF_BYTES : 49783
_STATISTICS_WRITING_APP : mkvmerge v7.7.0 ('Six Voices') 64bit built on Feb 28 2015 23:39:33
_STATISTICS_WRITING_DATE_UTC : 2015-03-21 03:46:06
_STATISTICS_TAGS : BPS DURATION NUMBER_OF_FRAMES NUMBER_OF_BYTES

Видео
Идентификатор : 1
Формат : AVC
Формат/Информация : Advanced Video Codec
Профиль формата : High@L4.1
Параметр CABAC формата : Да
Параметр ReFrames формата : 9 кадров
Идентификатор кодека : V_MPEG4/ISO/AVC
Продолжительность : 2 ч. 50 м.
Битрейт : 4594 Кбит/сек
Ширина : 1280 пикселей
Высота : 532 пикселя
Соотношение сторон : 2,40:1
Режим частоты кадров : Постоянный
Частота кадров : 23,976 кадра/сек
Цветовое пространство : YUV
Субдискретизация насыщенности : 4:2:0
Битовая глубина : 8 бит
Тип развёртки : Прогрессивная
Бит/(Пиксели*Кадры) : 0.281
Размер потока : 5,48 Гбайт (86%)
Заголовок : BDRip -- STarankov
Библиотека кодирования : x264 core 142 r2431 ac76440
Настройки программы : cabac=1 / ref=9 / deblock=1:-2:-2 / analyse=0x3:0x113 / me=umh / subme=10 / psy=1 / psy_rd=1.00:0.15 / mixed_ref=1 / me_range=32 / chroma_me=1 / trellis=2 / 8x8dct=1 / cqm=0 / deadzone=21,11 / fast_pskip=1 / chroma_qp_offset=-3 / threads=6 / lookahead_threads=1 / sliced_threads=0 / nr=0 / decimate=1 / interlaced=0 / bluray_compat=0 / constrained_intra=0 / bframes=8 / b_pyramid=2 / b_adapt=2 / b_bias=0 / direct=3 / weightb=1 / open_gop=0 / weightp=2 / keyint=230 / keyint_min=23 / scenecut=40 / intra_refresh=0 / rc_lookahead=40 / rc=crf / mbtree=0 / crf=19.0 / qcomp=0.60 / qpmin=0 / qpmax=69 / qpstep=4 / vbv_maxrate=40000 / vbv_bufsize=50000 / crf_max=0.0 / nal_hrd=none / filler=0 / ip_ratio=1.40 / pb_ratio=1.30 / aq=1:1.00
Язык : English
Default : Да
Forced : Нет
DURATION : 02:50:40.230000000
NUMBER_OF_FRAMES : 245520
NUMBER_OF_BYTES : 6013227494
_STATISTICS_WRITING_APP : mkvmerge v7.7.0 ('Six Voices') 64bit built on Feb 28 2015 23:39:33
_STATISTICS_WRITING_DATE_UTC : 2015-03-21 03:46:06
_STATISTICS_TAGS : BPS DURATION NUMBER_OF_FRAMES NUMBER_OF_BYTES

Аудио #1
Идентификатор : 2
Формат : AC-3
Формат/Информация : Audio Coding 3
Расширение режима : CM (complete main)
Параметр Endianness формата : Big
Идентификатор кодека : A_AC3
Продолжительность : 2 ч. 50 м.
Вид битрейта : Постоянный
Битрейт : 192 Кбит/сек
Каналы : 2 канала
Расположение каналов : Front: L R
Частота : 48,0 КГц
Битовая глубина : 16 бит
Метод сжатия : С потерями
Размер потока : 234 Мбайт (4%)
Заголовок : MVO
Язык : Russian
Default : Да
Forced : Нет

Аудио #2
Идентификатор : 3
Формат : AC-3
Формат/Информация : Audio Coding 3
Расширение режима : CM (complete main)
Параметр Endianness формата : Big
Идентификатор кодека : A_AC3
Продолжительность : 2 ч. 50 м.
Вид битрейта : Постоянный
Битрейт : 448 Кбит/сек
Каналы : 6 каналов
Расположение каналов : Front: L C R, Side: L R, LFE
Частота : 48,0 КГц
Битовая глубина : 16 бит
Метод сжатия : С потерями
Размер потока : 547 Мбайт (8%)
Заголовок : Original
Язык : English
Default : Нет
Forced : Нет

Текст
Идентификатор : 4
Формат : UTF-8
Идентификатор кодека : S_TEXT/UTF8
Идентификатор кодека/Информация : UTF-8 Plain Text
Заголовок : английские (для слабослышащих)
Язык : English
Default : Нет
Forced : Нет

Меню
00:00:00.000 : :Chapter 01
00:03:00.180 : :Chapter 02
00:05:33.665 : :Chapter 03
00:13:21.674 : :Chapter 04
00:17:23.541 : :Chapter 05
00:19:52.231 : :Chapter 06
00:24:14.035 : :Chapter 07
00:28:15.192 : :Chapter 08
00:33:19.747 : :Chapter 09
00:38:05.614 : :Chapter 10
00:41:39.788 : :Chapter 11
00:45:16.255 : :Chapter 12
00:50:20.057 : :Chapter 13
00:53:22.489 : :Chapter 14
00:59:02.746 : :Chapter 15
01:05:38.934 : :Chapter 16
01:08:57.841 : :Chapter 17
01:16:12.774 : :Chapter 18
01:20:22.484 : :Chapter 19
01:24:58.301 : :Chapter 20
01:29:04.921 : :Chapter 21
01:34:05.765 : :Chapter 22
01:40:53.756 : :Chapter 23
01:45:47.591 : :Chapter 24
01:46:54.658 : :Chapter 25
01:48:36.717 : :Chapter 26
01:53:09.032 : :Chapter 27
01:58:01.364 : :Chapter 28
02:00:56.289 : :Chapter 29
02:05:40.658 : :Chapter 30
02:10:18.476 : :Chapter 31
02:13:12.525 : :Chapter 32
02:18:47.902 : :Chapter 33
02:21:39.364 : :Chapter 34
02:23:42.361 : :Chapter 35
02:26:46.047 : :Chapter 36
02:32:03.823 : :Chapter 37
02:34:57.745 : :Chapter 38
02:38:30.501 : :Chapter 39
02:42:26.111 : :Chapter 40
02:46:44.159 : :Chapter 41
02:48:31.476 : :Chapter 42
pb.wtf



Скачать Вдали от безумной толпы через торрент http://i59.fastpic.ru/big/2015/0321/a0/1ba14d1e5968bd4174be45fdbf6612a0.jpg Скачать фильм Вдали от безумной толпы через торрент бесплантно в хорошем качестве Описание: Унаследовав от дядюшки богатую ферму, юная Батшиба Эвердин энергично берётся за дело, набрав себе рабочих. Берёт она и ... 10 10 1
Торрент: Зарегистрирован [2015-03-21 08:35] · скачан: 17 раз
Статус: √ проверено
Размер: 6.37 GB
Как cкачать? Как скачать Вдали от безумной толпы через торрент | qTorrent

% Раздел Тема Автор DL S | L
Фильмы до 2000 г. [ 4.06 GB ] Вдали от безумной толпы / Far from the Madding Crowd [1967 BDRip-AVC] MVO msltel Скачать
1 | 0

28-11-2019 20:33  

Отключить всю рекламу на сайте

    Дорогой пользователь! Огромная просьба, поблагодарите релизера, оцените раздачу и оставьте свои комментарий, если Вы скачали Вдали от безумной толпы через торрент бесплатно! Внесите свою лепту в развитие PiratBit!
    Комментировать посты могут только пользователи прошедшие не сложную регистрацию
    Показать сообщения:    

    Вдали от безумной толпы через торрент
    Скачать бесплатно Вдали от безумной толпы
    Вдали от безумной толпы скачать торрент
    Вдали от безумной толпы смотреть онлайн
    Cкачать фильм Вдали от безумной толпы бесплатно
    Вдали от безумной толпы скачать торрент в хорошем качестве
    Вдали от безумной толпы смотреть онлайн бесплатно в хорошем качестве


    Вы не можете начинать темы
    Вы не можете отвечать на сообщения
    Вы не можете редактировать свои сообщения
    Вы не можете удалять свои сообщения
    Вы не можете голосовать в опросах
    Вы не можете прикреплять файлы к сообщениям
    Вы можете скачивать файлы