Ссылка на приватное зеркало нашего сайта всего за 1$. Внимание количество ограничено!!!

2 сезон

iTunes

1 сезон

1

iTunes

iTunes

iTunes

1 сезон

RePack

30

ИГРА 18+

pack

ВАЖНО

!!Акция!!

Alien_RageХит недели

RePack

MK11
pack

Забери бонус

RePack

jed

!!Акция!!

Alien_Rage

RePack

fifa19

RePack

Assassins Creed: Odyssey

RePack

NEED FOR SPEED™ PAYBACK

4 сезон

9 сезон

Бесстыжие 9 сезон

Все сериалы

все сериалы на PB.wtf

RePack

FAR CRY 5
  

Приключения Паддингтона / Paddington (Пол Кинг ) [2014, комедия, приключения, семейный BDRip 720p, Дубляж] / Чистый звук pb.wtf

Приключения Паддингтона через торрент pb.wtf

Размер: 4.5 GB | Добавлен: 5 лет 7 мес. назад | Торрент скачан:179 раз
Скачать  

21-03-2015 10:31 Приключения Паддингтона Скачать торрент  

Приключения Паддингтона / Paddington

Год выпуска: 2014
Страна: Великобритания, Франция
Жанр: комедия, приключения, семейный
Продолжительность: 01:35:12
Перевод: Дублированное [чистый звук] Официальный
Режиссер: Пол Кинг

В ролях: Бен Уишоу (Paddington, озвучка), Николь Кидман (Millicent), Хью Бонневилль (Henry Brown), Салли Хокинс (Mary Brown), Джули Уолтерс (Mrs. Bird), Мадлен Харрис (Judy Brown), Сэмюэл Джослин (Jonathan Brown), Джим Бродбент (Mr. Gruber), Питер Капальди (Mr. Curry), Имелда Стонтон (Aunt Lucy, озвучка), Майкл Гэмбон (Uncle Pastuzo, озвучка), Тим Дауни (Montgomery Clyde)

Описание:
Познакомьтесь, это медведь по имени Паддингтон из дремучего Перу. Он приехал в Лондон, чтобы обрести семью и стать настоящим английским джентльменом. На пути к этой цели его ожидают невероятные приключения, полные юмора и опасностей.



Качество: BDRip 720p
Формат: mkv
Видео кодек: AVC
Аудио кодек:AC3 / DTS
Видео: AVC, 1280x536 (2.40:1), 5058 kbps, 23,976 fps, 0,307 bpp
Аудио №1: русский / AC3 / 2.0 / 48 kHz / 192 kbps / 16 bit
Аудио №2: английский / DTS / 5.1 / 48 kHz / 1510 kbps / 24 bit

Код:

General
Unique ID                                : 194236867212153549784090678470002003424 (0x9220A8EE5722452BA1C63B41B19ECDE0)
Complete name                            : E:\фильмы\Paddington.2014.720p.mkv
Format                                   : Matroska
Format version                           : Version 4 / Version 2
File size                                : 4.50 GiB
Duration                                 : 1h 35mn
Overall bit rate                         : 6 760 Kbps
Encoded date                             : UTC 2015-03-21 00:29:57
Writing application                      : mkvmerge v7.7.0 ('Six Voices') 64bit built on Feb 28 2015 23:39:33
Writing library                          : libebml v1.3.1 + libmatroska v1.4.2
DURATION                                 : 01:35:12.480000000
NUMBER_OF_FRAMES                         : 178515
NUMBER_OF_BYTES                          : 137099520
_STATISTICS_WRITING_APP                  : mkvmerge v7.7.0 ('Six Voices') 64bit built on Feb 28 2015 23:39:33
_STATISTICS_WRITING_DATE_UTC             : 2015-03-21 00:29:57
_STATISTICS_TAGS                         : BPS DURATION NUMBER_OF_FRAMES NUMBER_OF_BYTES

Video
ID                                       : 1
Format                                   : AVC
Format/Info                              : Advanced Video Codec
Format profile                           : High@L4.1
Format settings, CABAC                   : Yes
Format settings, ReFrames                : 5 frames
Codec ID                                 : V_MPEG4/ISO/AVC
Duration                                 : 1h 35mn
Bit rate                                 : 5 058 Kbps
Width                                    : 1 280 pixels
Height                                   : 536 pixels
Display aspect ratio                     : 2.40:1
Frame rate                               : 23.976 fps
Color space                              : YUV
Chroma subsampling                       : 4:2:0
Bit depth                                : 8 bits
Scan type                                : Progressive
Bits/(Pixel*Frame)                       : 0.307
Stream size                              : 3.27 GiB (73%)
Writing library                          : x264 core 144 r2525 40bb568
Encoding settings                        : cabac=1 / ref=5 / deblock=1:0:0 / analyse=0x3:0x133 / me=umh / subme=7 / psy=1 / psy_rd=1.00:0.00 / mixed_ref=1 / me_range=16 / chroma_me=1 / trellis=1 / 8x8dct=1 / cqm=0 / deadzone=21,11 / fast_pskip=0 / chroma_qp_offset=-2 / threads=18 / lookahead_threads=3 / sliced_threads=0 / nr=0 / decimate=1 / interlaced=0 / bluray_compat=0 / constrained_intra=0 / bframes=3 / b_pyramid=2 / b_adapt=1 / b_bias=0 / direct=1 / weightb=1 / open_gop=0 / weightp=2 / keyint=250 / keyint_min=23 / scenecut=40 / intra_refresh=0 / rc_lookahead=40 / rc=2pass / mbtree=1 / bitrate=5058 / ratetol=1.0 / qcomp=0.60 / qpmin=0 / qpmax=69 / qpstep=4 / cplxblur=20.0 / qblur=0.5 / ip_ratio=1.40 / aq=1:1.00
Language                                 : English
Default                                  : Yes
Forced                                   : No
DURATION                                 : 01:35:12.633000000
NUMBER_OF_FRAMES                         : 136966
NUMBER_OF_BYTES                          : 3610941616
_STATISTICS_WRITING_APP                  : mkvmerge v7.7.0 ('Six Voices') 64bit built on Feb 28 2015 23:39:33
_STATISTICS_WRITING_DATE_UTC             : 2015-03-21 00:29:57
_STATISTICS_TAGS                         : BPS DURATION NUMBER_OF_FRAMES NUMBER_OF_BYTES

Audio #1
ID                                       : 2
Format                                   : AC-3
Format/Info                              : Audio Coding 3
Mode extension                           : CM (complete main)
Codec ID                                 : A_AC3
Duration                                 : 1h 35mn
Bit rate mode                            : Constant
Bit rate                                 : 192 Kbps
Channel(s)                               : 2 channels
Channel positions                        : Front: L R
Sampling rate                            : 48.0 KHz
Bit depth                                : 16 bits
Compression mode                         : Lossy
Stream size                              : 131 MiB (3%)
Language                                 : Russian
Default                                  : Yes
Forced                                   : No

Audio #2
ID                                       : 3
Format                                   : DTS
Format/Info                              : Digital Theater Systems
Codec ID                                 : A_DTS
Duration                                 : 1h 35mn
Bit rate mode                            : Constant
Bit rate                                 : 1 510 Kbps
Channel(s)                               : 6 channels
Channel positions                        : Front: L C R, Side: L R, LFE
Sampling rate                            : 48.0 KHz
Bit depth                                : 24 bits
Compression mode                         : Lossy
Stream size                              : 1.00 GiB (22%)
Language                                 : English
Default                                  : No
Forced                                   : No

Menu
00:00:00.000                             : en:00:00:00.000
00:09:26.149                             : en:00:09:26.149
00:16:45.755                             : en:00:16:45.755
00:24:45.651                             : en:00:24:45.651
00:32:44.921                             : en:00:32:44.921
00:40:31.179                             : en:00:40:31.179
00:47:55.664                             : en:00:47:55.664
00:57:52.469                             : en:00:57:52.469
01:03:24.467                             : en:01:03:24.467
01:10:31.727                             : en:01:10:31.727
01:23:49.983                             : en:01:23:49.983
01:27:39.504                             : en:01:27:39.504

pb.wtf



Скачать Приключения Паддингтона через торрент http://i57.fastpic.ru/big/2015/0321/0d/22e077e8d84848559c09070eaf8b760d.jpg Скачать фильм Приключения Паддингтона через торрент бесплантно в хорошем качестве Описание: Познакомьтесь, это медведь по имени Паддингтон из дремучего Перу. Он приехал в Лондон, чтобы обрести семью и стать настоящим ... 9.7 10 6
Торрент: Зарегистрирован [2015-03-21 10:31] · скачан: 179 раз
Статус: T временная
Размер: 4.5 GB
Как cкачать? Как скачать Приключения Паддингтона через торрент | qTorrent

% Раздел Тема Автор DL S | L
T Фильмы 2014 [DVDrip, WEB-DLRip, HDrip] [ 1.29 GB ] Паддингтона / Paddington [2014 HDRip-AVC] - [Чистый звук] От R.G. PiratFilms White Smoke Скачать
1 | 0
T Фильмы (WEB-DL 720p, 1080p) [ 2.79 GB ] Паддингтона / Paddington [2014 HDTVRip ] [Чистый звук] Anonymous Скачать
1 | 0

28-11-2019 20:33  

Отключить всю рекламу на сайте

    Дорогой пользователь! Огромная просьба, поблагодарите релизера, оцените раздачу и оставьте свои комментарий, если Вы скачали Приключения Паддингтона через торрент бесплатно! Внесите свою лепту в развитие PiratBit!
    Комментировать посты могут только пользователи прошедшие не сложную регистрацию
    Показать сообщения:    

    Приключения Паддингтона через торрент
    Скачать бесплатно Приключения Паддингтона
    Приключения Паддингтона скачать торрент
    Приключения Паддингтона смотреть онлайн
    Cкачать фильм Приключения Паддингтона бесплатно
    Приключения Паддингтона скачать торрент в хорошем качестве
    Приключения Паддингтона смотреть онлайн бесплатно в хорошем качестве


    Вы не можете начинать темы
    Вы не можете отвечать на сообщения
    Вы не можете редактировать свои сообщения
    Вы не можете удалять свои сообщения
    Вы не можете голосовать в опросах
    Вы не можете прикреплять файлы к сообщениям
    Вы можете скачивать файлы