Ссылка на приватное зеркало нашего сайта всего за 1$. Внимание количество ограничено!!!

2 сезон

iTunes

1 сезон

1

2 сезон

2 сезон

iTunes

1 сезон

RePack

30

Ultimate

ВАЖНО

ИГРА 18+

pack

RePack

MK11
pack

Забери бонус

RePack

jed

!!Акция!!

Alien_Rage

RePack

fifa19

RePack

Assassins Creed: Odyssey

RePack

NEED FOR SPEED™ PAYBACK

4 сезон

9 сезон

Бесстыжие 9 сезон

Все сериалы

все сериалы на PB.wtf

RePack

FAR CRY 5
  

Родословная / Bloodline / Сезон: 1 / Серии 1-13 из 13 (Йохан Ренк / Johan Renck, Дэниэл Эттиэс / Daniel Attias, Саймон Селлан Джоунс / Simon Cellan Jones) [2015, США, триллер, драма, WEBRip, MVO] [AlexFilm] pb.wtf

Родословная через торрент pb.wtf

Размер: 8.21 GB | Добавлен: 5 лет 7 мес. назад | Торрент скачан:50 раз
Скачать  

22-03-2015 03:52 Родословная Скачать торрент  

Родословная / Bloodline
«Мы не плохие люди, но плохи наши поступки»


  • Год выпуска: 2015
  • Страна: США
  • Жанр: триллер, драма
  • Продолжительность: 00:50:36 (Серия)
  • Перевод: Профессиональный многоголосый закадровый) [AlexFilm]

  • Режиссер: Йохан Ренк / Johan Renck, Дэниэл Эттиэс / Daniel Attias, Саймон Селлан Джоунс / Simon Cellan Jones
  • В ролях:

    Michelle Rose Domb (Hotel Guest), Brandon Larracuente (Ben Rayburn), Nevy Rey, Джереми Хейл (Hotel Staff), Джейми МакШейн (Eric O'Bannon), Кайл Чандлер (John Rayburn), Тейлор Рувьер (Jane Rayburn), Норберт Лео Батц (Kevin Rayburn), Линда Карделлини (Meg Rayburn), Бен Мендельсон (Danny Rayburn), Гленн Моршауэр (Wayne Lowry), Сисси Спейсек (Sally Rayburn)

  • Описание:
    История о взрослых братьях и сестрах, чьи секреты всплывают наружу, когда их брат, являющийся позором их семьи, возвращается домой.
  • Рейтинг:



  • Качество: WEBRip
  • Формат: :AVI
  • Видео кодек: XviD
  • Аудио кодек: MP3
  • Видео: 720x400 (16:9), 1402 kbps, 23,976 fps, 0,203 bpp
  • Аудио №1: Русский 2.0 / 48 kHz / 128 kbps
  • Аудио №2: Английский 2.0 / 48 kHz / 128 kbps
  • Релиз от: GEKADOL

    Код:

    General
    Complete name                            : I:\Bloodline.S01.AlexFilm\Bloodline.s01e02.WEBRip.Rus.Eng.AlexFilm.avi
    Format                                   : AVI
    Format/Info                              : Audio Video Interleave
    File size                                : 605 MiB
    Duration                                 : 50mn 36s
    Overall bit rate                         : 1 672 Kbps
    Movie name                               : Bloodline 1x02 @ AlexFilm
    Writing application                      : VirtualDubMod 1.5.10.2 (build 2542/release)

    Video
    ID                                       : 0
    Format                                   : MPEG-4 Visual
    Format profile                           : Advanced Simple@L5
    Format settings, BVOP                    : 1
    Format settings, QPel                    : No
    Format settings, GMC                     : No warppoints
    Format settings, Matrix                  : Default (MPEG)
    Codec ID                                 : XVID
    Codec ID/Hint                            : XviD
    Duration                                 : 50mn 36s
    Bit rate                                 : 1 403 Kbps
    Width                                    : 720 pixels
    Height                                   : 400 pixels
    Display aspect ratio                     : 16:9
    Frame rate                               : 23.976 fps
    Color space                              : YUV
    Chroma subsampling                       : 4:2:0
    Bit depth                                : 8 bits
    Scan type                                : Progressive
    Compression mode                         : Lossy
    Bits/(Pixel*Frame)                       : 0.203
    Stream size                              : 508 MiB (84%)
    Writing library                          : XviD 1.2.1 (UTC 2008-12-04)

    Audio #1
    ID                                       : 1
    Format                                   : MPEG Audio
    Format version                           : Version 1
    Format profile                           : Layer 3
    Mode                                     : Joint stereo
    Mode extension                           : MS Stereo
    Codec ID                                 : 55
    Codec ID/Hint                            : MP3
    Duration                                 : 50mn 36s
    Bit rate mode                            : Constant
    Bit rate                                 : 128 Kbps
    Channel(s)                               : 2 channels
    Sampling rate                            : 48.0 KHz
    Compression mode                         : Lossy
    Stream size                              : 46.3 MiB (8%)
    Alignment                                : Aligned on interleaves
    Interleave, duration                     : 42 ms (1.00 video frame)
    Interleave, preload duration             : 504 ms
    Title                                    : Russian (AlexFilm)

    Audio #2
    ID                                       : 2
    Format                                   : MPEG Audio
    Format version                           : Version 1
    Format profile                           : Layer 3
    Mode                                     : Joint stereo
    Mode extension                           : MS Stereo
    Codec ID                                 : 55
    Codec ID/Hint                            : MP3
    Duration                                 : 50mn 36s
    Bit rate mode                            : Constant
    Bit rate                                 : 128 Kbps
    Channel(s)                               : 2 channels
    Sampling rate                            : 48.0 KHz
    Compression mode                         : Lossy
    Stream size                              : 46.3 MiB (8%)
    Alignment                                : Aligned on interleaves
    Interleave, duration                     : 42 ms (1.00 video frame)
    Interleave, preload duration             : 504 ms
    Title                                    : English




    Скриншоты:
    скриншот   скриншот   скриншот   скриншот   скриншот  
    скриншот  

    Раздача ведётся путём добавления новых серий. Добавлена 13 серия (01.04.2015).Просьба перекачать торрент файл.

    pb.wtf



  • Скачать Родословная через торрент http://pic1.kartinco.top/images/10/bzbkx.jpg Скачать фильм Родословная через торрент бесплантно в хорошем качестве Описание: История о взрослых братьях и сестрах, чьи секреты всплывают наружу, когда их брат, являющийся позором их семьи, возвращается ... 7 10 3
    Info! Золотая раздача, скачанное не засчитывается.
    Торрент: Зарегистрирован [2015-04-01 01:26] · скачан: 50 раз
    Статус: √ проверено
    Размер: 8.21 GB
    Как cкачать? Как скачать Родословная через торрент | qTorrent



    Последний раз редактировалось: GEKADOL (2015-04-01 02:05), всего редактировалось 5 раз(а)

    28-11-2019 20:33  

    Отключить всю рекламу на сайте

    22-03-2015 09:56 Родословная Скачать торрент  

    как сериал, народ?pb.wtf



    23-03-2015 12:06 Родословная Скачать торрент  

    maxut80 писал(а):

    как сериал, народ?

    Посмотрел 1 серию - мутота какая-то..(pb.wtf



      Дорогой пользователь! Огромная просьба, поблагодарите релизера, оцените раздачу и оставьте свои комментарий, если Вы скачали Родословная через торрент бесплатно! Внесите свою лепту в развитие PiratBit!
      Комментировать посты могут только пользователи прошедшие не сложную регистрацию
      Показать сообщения:    

      Родословная через торрент
      Скачать бесплатно Родословная
      Родословная скачать торрент
      Родословная смотреть онлайн
      Cкачать фильм Родословная бесплатно
      Родословная скачать торрент в хорошем качестве
      Родословная смотреть онлайн бесплатно в хорошем качестве


      Вы не можете начинать темы
      Вы не можете отвечать на сообщения
      Вы не можете редактировать свои сообщения
      Вы не можете удалять свои сообщения
      Вы не можете голосовать в опросах
      Вы не можете прикреплять файлы к сообщениям
      Вы можете скачивать файлы