Ссылка на приватное зеркало нашего сайта всего за 1$. Внимание количество ограничено!!!

2 сезон

iTunes

1 сезон

1

2 сезон

2 сезон

iTunes

1 сезон

RePack

30

Новинка

ВАЖНО

ИГРА 18+

pack

RePack

MK11
pack

Забери бонус

RePack

jed

!!Акция!!

Alien_Rage

RePack

fifa19

RePack

Assassins Creed: Odyssey

RePack

NEED FOR SPEED™ PAYBACK

4 сезон

9 сезон

Бесстыжие 9 сезон

Все сериалы

все сериалы на PB.wtf

RePack

FAR CRY 5
  

Грязь / Muck (Steve Wolsh) [2015, США, ужасы, BDRip 720p) VO [den904] pb.wtf

Грязь через торрент pb.wtf

Размер: 4.41 GB | Добавлен: 5 лет 8 мес. назад | Торрент скачан:142 раза
Скачать  

22-03-2015 05:01 Грязь Скачать торрент  

Грязь / Muck
«Счастливчики те кто уже мертв...»


  • Год выпуска: 2015
  • Страна: США
  • Жанр: ужасы
  • Продолжительность: 01:38:35
  • Перевод: Любительский (одноголосый) [den904] - перевод на русский язык [Cеверный]
  • Субтитры: английские (SDH)
  • Режиссер: Steve Wolsh
  • В ролях:

    Брайс Дрэйпер (Noah), Стефани Даниэльсон (Kylie), Лаура Джейкобс (Desiree), Грант Алан (Billy), Лорен Франческа (Mia), Жаклин Свидберг (Terra), Кэйн Ходдер (Grawesome Crutal), Лачлан Бьюкэнэн (Troit), Джия Скова (Victoria Cougar), Лейла Найт (Kitty), Виктория Софиа (Dedee), Одра Ван Хиис (Miss Cape Cod 2013)

  • Описание:
    Группа друзей оказалась в западне, провалившись в древнее захоронение, на выходе из которого их поджидал убийца - воплощение чистого Зла. Героям предстоит выбрать - противостоять злу и сражаться, или вернуться не самой приятной дорогой обратно...
  • Рейтинг:



  • Качество: BDRip 720p
  • Формат: :MKV
  • Видео кодек: AVC
  • Аудио кодек: AC3
  • Видео: 1280x690 (1.852), 5500 kbps, 23,976 fps, 0,260 bpp
  • Аудио №1: Русский 2.0 / 48 kHz / 192 kbps / 16 bit
  • Аудио №2: Английский 5.1 / 48 kHz / 640 kbps / 16 bit
  • Релиз от: GEKADOL

    Код:

    General
    Unique ID                                : 243509015664124710171528395750402950185 (0xB73221686BA37D2BA0D30ACA67240429)
    Complete name                            : F:\Muck.L1.2015.720p.BluRay.mkv
    Format                                   : Matroska
    Format version                           : Version 4 / Version 2
    File size                                : 4.41 GiB
    Duration                                 : 1h 38mn
    Overall bit rate                         : 6 405 Kbps
    Movie name                               : RARBG.COM - Muck.2015.720p.BluRay.x264.DD5.1-RARBG
    Encoded date                             : UTC 2015-03-21 21:32:55
    Writing application                      : mkvmerge v6.1.0 ('Old Devil') built on Mar  4 2013 09:10:42
    Writing library                          : libebml v1.3.0 + libmatroska v1.4.0

    Video
    ID                                       : 1
    Format                                   : AVC
    Format/Info                              : Advanced Video Codec
    Format profile                           : High@L4.1
    Format settings, CABAC                   : Yes
    Format settings, ReFrames                : 4 frames
    Codec ID                                 : V_MPEG4/ISO/AVC
    Duration                                 : 1h 38mn
    Bit rate                                 : 5 500 Kbps
    Width                                    : 1 280 pixels
    Height                                   : 690 pixels
    Display aspect ratio                     : 1.852
    Original display aspect ratio            : 1.853
    Frame rate mode                          : Variable
    Frame rate                               : 23.976 fps
    Color space                              : YUV
    Chroma subsampling                       : 4:2:0
    Bit depth                                : 8 bits
    Scan type                                : Progressive
    Bits/(Pixel*Frame)                       : 0.260
    Stream size                              : 3.75 GiB (85%)
    Title                                    : Muck.2015.720p.BluRay.x264.DD5.1-RARBG
    Writing library                          : x264 core 142 r2495 6a301b6
    Encoding settings                        : cabac=1 / ref=4 / deblock=1:-2:-2 / analyse=0x3:0x113 / me=umh / subme=7 / psy=1 / psy_rd=1.00:0.15 / mixed_ref=1 / me_range=16 / chroma_me=1 / trellis=1 / 8x8dct=1 / cqm=0 / deadzone=21,11 / fast_pskip=1 / chroma_qp_offset=-3 / threads=12 / lookahead_threads=3 / sliced_threads=0 / nr=0 / decimate=1 / interlaced=0 / bluray_compat=0 / constrained_intra=0 / bframes=3 / b_pyramid=2 / b_adapt=2 / b_bias=0 / direct=3 / weightb=1 / open_gop=0 / weightp=2 / keyint=250 / keyint_min=25 / scenecut=40 / intra_refresh=0 / rc_lookahead=50 / rc=abr / mbtree=1 / bitrate=5500 / ratetol=1.0 / qcomp=0.60 / qpmin=0 / qpmax=69 / qpstep=4 / vbv_maxrate=31250 / vbv_bufsize=31250 / nal_hrd=none / filler=0 / ip_ratio=1.40 / aq=1:1.00
    Language                                 : English
    Default                                  : Yes
    Forced                                   : No

    Audio #1
    ID                                       : 3
    Format                                   : AC-3
    Format/Info                              : Audio Coding 3
    Mode extension                           : CM (complete main)
    Codec ID                                 : A_AC3
    Duration                                 : 1h 38mn
    Bit rate mode                            : Constant
    Bit rate                                 : 192 Kbps
    Channel(s)                               : 2 channels
    Channel positions                        : Front: L R
    Sampling rate                            : 48.0 KHz
    Bit depth                                : 16 bits
    Compression mode                         : Lossy
    Delay relative to video                  : 2s 0ms
    Stream size                              : 135 MiB (3%)
    Default                                  : Yes
    Forced                                   : No

    Audio #2
    ID                                       : 4
    Format                                   : AC-3
    Format/Info                              : Audio Coding 3
    Mode extension                           : CM (complete main)
    Codec ID                                 : A_AC3
    Duration                                 : 1h 38mn
    Bit rate mode                            : Constant
    Bit rate                                 : 640 Kbps
    Channel(s)                               : 6 channels
    Channel positions                        : Front: L C R, Side: L R, LFE
    Sampling rate                            : 48.0 KHz
    Bit depth                                : 16 bits
    Compression mode                         : Lossy
    Stream size                              : 451 MiB (10%)
    Default                                  : No
    Forced                                   : No

    Text
    ID                                       : 2
    Format                                   : UTF-8
    Codec ID                                 : S_TEXT/UTF8
    Codec ID/Info                            : UTF-8 Plain Text
    Title                                    : SDH
    Language                                 : English
    Default                                  : No
    Forced                                   : No

    Menu
    00:00:00.000                             : en:Chapter 01
    00:08:17.788                             : en:Chapter 02
    00:21:53.603                             : en:Chapter 03
    00:26:34.884                             : en:Chapter 04
    00:34:26.564                             : en:Chapter 05
    00:40:53.075                             : en:Chapter 06
    00:49:06.693                             : en:Chapter 07
    00:54:48.910                             : en:Chapter 08
    01:01:44.409                             : en:Chapter 09
    01:11:48.095                             : en:Chapter 10
    01:20:16.645                             : en:Chapter 11
    01:29:48.299                             : en:Chapter 12




    Присутствует ненормативная лексика!!!!
    Скриншоты:



    pb.wtf



  • Скачать Грязь через торрент http://i4.imageban.ru/out/2015/03/22/d870d74488e8d3494d186748b0241fca.jpg Скачать фильм Грязь через торрент бесплантно в хорошем качестве Описание: Группа друзей оказалась в западне, провалившись в древнее захоронение, на выходе из которого их поджидал убийца - воплощение ... 10 10 10
    Торрент: Зарегистрирован [2015-03-22 05:01] · скачан: 142 раз
    Статус: T временная
    Размер: 4.41 GB
    Как cкачать? Как скачать Грязь через торрент | qTorrent

    28-11-2019 20:33  

    Отключить всю рекламу на сайте

    22-03-2015 06:22 Грязь Скачать торрент  

    А стандартный размер будет?
    З.Ы. трейлер на русском, кому интересно http://www.kinopoisk.ru/film/690603/video/111958/pb.wtf



      Дорогой пользователь! Огромная просьба, поблагодарите релизера, оцените раздачу и оставьте свои комментарий, если Вы скачали Грязь через торрент бесплатно! Внесите свою лепту в развитие PiratBit!
      Комментировать посты могут только пользователи прошедшие не сложную регистрацию
      Показать сообщения:    

      Грязь через торрент
      Скачать бесплатно Грязь
      Грязь скачать торрент
      Грязь смотреть онлайн
      Cкачать фильм Грязь бесплатно
      Грязь скачать торрент в хорошем качестве
      Грязь смотреть онлайн бесплатно в хорошем качестве


      Вы не можете начинать темы
      Вы не можете отвечать на сообщения
      Вы не можете редактировать свои сообщения
      Вы не можете удалять свои сообщения
      Вы не можете голосовать в опросах
      Вы не можете прикреплять файлы к сообщениям
      Вы можете скачивать файлы