MEGA SALE -50% FORZA HORIZON 4 ULTIMATE+ВСЕ DLC+ОНЛАЙН всего за 599р. 299 руб. (супер цена). Внимание количество ограничено!!!

iTunes

1+1

iTunes

мы

iTunes

1

iTunes

Чернобыль

iTunes

Ральф против интернета

Лицензия

ПШазам

Лицензия

Игра престолов

Лицензия

30
pack

ВАЖНО

!!Акция!!

Alien_RageХит недели

RePack

Resident Evil 21

ИГРА 18+

pack

RePack

Metro:Exodus

!!Акция!!

Alien_Rage

RePack

fifa19

RePack

Assassins Creed: Odyssey

RePack

NEED FOR SPEED™ PAYBACK

3 сезон

9 сезон

Бесстыжие 9 сезон

Все сериалы

все сериалы на PB.wtf

RePack

FAR CRY 5
Ребята, катастрофически не хватает 7730р. для оплаты серверов за АВГУСТ (всвязи с блокировками трафик упал в 3 раза), 1-2р., выручайте.
  

Доказательство / Proof (Жослин Мурхаус) [1991, драма, BDRip-AVC] 2 x DVO pb.wtf

Доказательство через торрент pb.wtf

Размер: 2.1 GB | Добавлен: 4 года 5 мес. назад | Торрент скачан:68 раз
Скачать  

22-03-2015 08:31 Доказательство Скачать торрент  

Доказательство / Proof

Год выпуска: 1991
Страна: Австралия
Жанр: драма
Продолжительность: 01:29:57
Перевод: профессиональный двухголосый
Субтитры: русские, английские

Режиссёр: Жослин Мурхаус

В ролях: Расселл Кроу, Хьюго Уивинг, Женевьев Пико, Хезер Митчелл, Джеффри Уолкер, Дэниэл Поллок, Фрэнки Дж. Холден, Фрэнк Галлахер, Саския Пост, Белинда Дэвей, Клифф Эллен, Роберт Джеймс О`Нейлл, Аделе Даниэль, Сюзанн Чэпман, Анджела Кэмпбелл, Освальдо Майон

Описание: Герой фильма Мартин слеп от рождения. Он считает, что его никто не любит, что даже мать тяготится им и хочет избавиться от него. Ему кажется, что все лгут ему, описывая окружающий мир. И тогда Мартин находит свой оригинальный способ проверить правдивость зрячих людей - он начинает заниматься фотографией...



Качество: BDRip-AVC Сравнение с исходником
Формат: MKV
Видео кодек: H.264
Аудио кодек: AC3
Видео: 2502 Кбит/с, 1024x552, 23.976 кадра/с, 0.185 bpp
Аудио 1: русский, AC3, 384 kbps, 6 ch, 48 kHz [профессиональный двухголосый, CP Digital]
Аудио 2: русский, AC3, 192 kbps, 2 ch, 48 kHz [профессиональный двухголосый, канал "Культура"]
Аудио 3: английский, AC3, 192 kbps, 2 ch, 48 kHz [оригинал]

Имеются неименованные главы/чаптеры.
Каннский кинофестиваль, 1991 год
Победитель (1):
Золотая камера - особый приз
frame I:952 Avg QP:16.34 size: 89481
frame P:24902 Avg QP:17.23 size: 28930
frame B:103505 Avg QP:19.72 size: 8945

Общее
Уникальный идентификатор : 179703500232892696753641963943241386071 (0x8731A29DD7775513A5F2B88CF7A70857)
Полное имя : D:VideoDokazatelstvo.1991.BDRip.AVC.mkv
Формат : Matroska
Версия формата : Version 4 / Version 2
Размер файла : 2,10 Гбайт
Продолжительность : 1 ч. 29 м.
Общий поток : 3337 Кбит/сек
Дата кодирования : UTC 2015-03-21 06:15:30
Программа кодирования : mkvmerge v7.7.0 ('Six Voices') 64bit built on Feb 28 2015 23:39:33
Библиотека кодирования : libebml v1.3.1 + libmatroska v1.4.2
DURATION : 01:24:26.310000000
NUMBER_OF_FRAMES : 805
NUMBER_OF_BYTES : 28757
_STATISTICS_WRITING_APP : mkvmerge v7.7.0 ('Six Voices') 64bit built on Feb 28 2015 23:39:33
_STATISTICS_WRITING_DATE_UTC : 2015-03-21 06:15:30
_STATISTICS_TAGS : BPS DURATION NUMBER_OF_FRAMES NUMBER_OF_BYTES

Видео
Идентификатор : 1
Формат : AVC
Формат/Информация : Advanced Video Codec
Профиль формата : High@L4.1
Параметр CABAC формата : Да
Параметр ReFrames формата : 9 кадров
Идентификатор кодека : V_MPEG4/ISO/AVC
Продолжительность : 1 ч. 29 м.
Битрейт : 2502 Кбит/сек
Ширина : 1024 пикселя
Высота : 552 пикселя
Соотношение сторон : 1,85:1
Режим частоты кадров : Постоянный
Частота кадров : 23,976 кадра/сек
Цветовое пространство : YUV
Субдискретизация насыщенности : 4:2:0
Битовая глубина : 8 бит
Тип развёртки : Прогрессивная
Бит/(Пиксели*Кадры) : 0.185
Размер потока : 1,57 Гбайт (75%)
Заголовок : BDRip -- STarankov
Библиотека кодирования : x264 core 142 r2431 ac76440
Настройки программы : cabac=1 / ref=9 / deblock=1:-2:-2 / analyse=0x3:0x113 / me=umh / subme=10 / psy=1 / psy_rd=1.00:0.15 / mixed_ref=1 / me_range=32 / chroma_me=1 / trellis=2 / 8x8dct=1 / cqm=0 / deadzone=21,11 / fast_pskip=1 / chroma_qp_offset=-3 / threads=6 / lookahead_threads=1 / sliced_threads=0 / nr=0 / decimate=1 / interlaced=0 / bluray_compat=0 / constrained_intra=0 / bframes=8 / b_pyramid=2 / b_adapt=2 / b_bias=0 / direct=3 / weightb=1 / open_gop=0 / weightp=2 / keyint=230 / keyint_min=23 / scenecut=40 / intra_refresh=0 / rc_lookahead=40 / rc=crf / mbtree=0 / crf=18.0 / qcomp=0.60 / qpmin=0 / qpmax=69 / qpstep=4 / vbv_maxrate=40000 / vbv_bufsize=50000 / crf_max=0.0 / nal_hrd=none / filler=0 / ip_ratio=1.40 / pb_ratio=1.30 / aq=1:1.00
Язык : English
Default : Да
Forced : Нет
DURATION : 01:29:55.349000000
NUMBER_OF_FRAMES : 129359
NUMBER_OF_BYTES : 1731419842
_STATISTICS_WRITING_APP : mkvmerge v7.7.0 ('Six Voices') 64bit built on Feb 28 2015 23:39:33
_STATISTICS_WRITING_DATE_UTC : 2015-03-21 06:15:30
_STATISTICS_TAGS : BPS DURATION NUMBER_OF_FRAMES NUMBER_OF_BYTES

Аудио #1
Идентификатор : 2
Формат : AC-3
Формат/Информация : Audio Coding 3
Расширение режима : CM (complete main)
Параметр Endianness формата : Big
Идентификатор кодека : A_AC3
Продолжительность : 1 ч. 29 м.
Вид битрейта : Постоянный
Битрейт : 384 Кбит/сек
Каналы : 6 каналов
Расположение каналов : Front: L C R, Side: L R, LFE
Частота : 48,0 КГц
Битовая глубина : 16 бит
Метод сжатия : С потерями
Размер потока : 247 Мбайт (12%)
Заголовок : DVO (CP Digital)
Язык : Russian
Default : Да
Forced : Нет

Аудио #2
Идентификатор : 3
Формат : AC-3
Формат/Информация : Audio Coding 3
Расширение режима : CM (complete main)
Параметр Endianness формата : Big
Идентификатор кодека : A_AC3
Продолжительность : 1 ч. 29 м.
Вид битрейта : Постоянный
Битрейт : 192 Кбит/сек
Каналы : 2 канала
Расположение каналов : Front: L R
Частота : 48,0 КГц
Битовая глубина : 16 бит
Метод сжатия : С потерями
Размер потока : 124 Мбайт (6%)
Заголовок : DVO (канал "Культура")
Язык : Russian
Default : Нет
Forced : Нет

Аудио #3
Идентификатор : 4
Формат : AC-3
Формат/Информация : Audio Coding 3
Расширение режима : CM (complete main)
Параметр Endianness формата : Big
Идентификатор кодека : A_AC3
Продолжительность : 1 ч. 29 м.
Вид битрейта : Постоянный
Битрейт : 192 Кбит/сек
Каналы : 2 канала
Расположение каналов : Front: L R
Частота : 48,0 КГц
Битовая глубина : 16 бит
Метод сжатия : С потерями
Размер потока : 124 Мбайт (6%)
Заголовок : Original
Язык : English
Default : Нет
Forced : Нет

Текст #1
Идентификатор : 5
Формат : UTF-8
Идентификатор кодека : S_TEXT/UTF8
Идентификатор кодека/Информация : UTF-8 Plain Text
Заголовок : русские
Язык : Russian
Default : Нет
Forced : Нет

Текст #2
Идентификатор : 6
Формат : UTF-8
Идентификатор кодека : S_TEXT/UTF8
Идентификатор кодека/Информация : UTF-8 Plain Text
Заголовок : английские
Default : Нет
Forced : Нет

Меню
00:00:00.000 : :Chapter 01
00:09:59.973 : :Chapter 02
00:19:59.990 : :Chapter 03
00:29:59.964 : :Chapter 04
00:39:59.980 : :Chapter 05
00:49:59.996 : :Chapter 06
00:59:59.970 : :Chapter 07
01:09:59.987 : :Chapter 08
01:19:59.961 : :Chapter 09
pb.wtf



Скачать Доказательство через торрент http://i60.fastpic.ru/big/2015/0322/ea/7e20038a47dd8be7146cdd91d798dfea.jpg Скачать фильм Доказательство через торрент бесплантно в хорошем качестве Описание: Герой фильма Мартин слеп от рождения. Он считает, что его никто не любит, что даже мать тяготится им и хочет избавиться от него. ... 10 10 3
Торрент: Зарегистрирован [2015-03-22 08:31] · скачан: 68 раз
Статус: √ проверено
Размер: 2.1 GB
Как cкачать? Как скачать Доказательство через торрент | qTorrent

% Раздел Тема Автор DL S | L
Фильмы [HD 720p, 1080p] (Хороший звук DUB, MVO) [ 3.28 GB ] Доказательство / Proof [1991 BDRip 720p] 2 x DVO msltel Скачать
1 | 0


>> Регистрируемся здесь <<






Отзывы и комментарии о схеме читаем и пишем здесь: ---> Отзывы и комментарии о схеме

Новые благодарочки в телеграм довольных пользователей:
скриншот   скриншот   скриншот   скриншот   скриншот
    Дорогой пользователь! Огромная просьба, поблагодарите релизера, оцените раздачу и оставьте свои комментарий, если Вы скачали Доказательство через торрент бесплатно! Внесите свою лепту в развитие PiratBit!
    Комментировать посты могут только пользователи прошедшие не сложную регистрацию
    Показать сообщения:    

    Доказательство через торрент
    Скачать бесплатно Доказательство
    Доказательство скачать торрент
    Доказательство смотреть онлайн
    Cкачать фильм Доказательство бесплатно
    Доказательство скачать торрент в хорошем качестве
    Доказательство смотреть онлайн бесплатно в хорошем качестве


    Вы не можете начинать темы
    Вы не можете отвечать на сообщения
    Вы не можете редактировать свои сообщения
    Вы не можете удалять свои сообщения
    Вы не можете голосовать в опросах
    Вы не можете прикреплять файлы к сообщениям
    Вы можете скачивать файлы