Ссылка на приватное зеркало нашего сайта всего за 1$. Внимание количество ограничено!!!

2 сезон

iTunes

1 сезон

1

iTunes

iTunes

iTunes

1 сезон

RePack

30

ИГРА 18+

pack

ВАЖНО

!!Акция!!

Alien_RageХит недели

RePack

MK11
pack

Забери бонус

RePack

jed

!!Акция!!

Alien_Rage

RePack

fifa19

RePack

Assassins Creed: Odyssey

RePack

NEED FOR SPEED™ PAYBACK

4 сезон

9 сезон

Бесстыжие 9 сезон

Все сериалы

все сериалы на PB.wtf

RePack

FAR CRY 5
  

Ночь / La notte (Микеланджело Антониони / Michelangelo Antonioni ) [1961, драма, BDRip 720p], Профессиональный (двухголосый) pb.wtf

Ночь через торрент pb.wtf

Размер: 5.76 GB | Добавлен: 5 лет 7 мес. назад | Торрент скачан:11 раз
Скачать  

22-03-2015 11:30 Ночь Скачать торрент  

Ночь / La notte


Год выпуска: 1961
Страна: Италия, Франция
Жанр: драма
Продолжительность: 02:02:18
Перевод: Профессиональный (двухголосый)
Субтитры: русские (Full), английские (Full)
Режиссер: Микеланджело Антониони
В ролях: Марчелло Мастроянни , Жанна Моро , Моника Витти , Бернхард Викки , Рози Маццакурати , Мария Пиа Луци , Гуидо Аймоне Марсан , Витторио Бертолини , Винченцо Корбелла , Уго Фортунати , Джитт Магрини , Джорджо Негро
Описание::
Писатель - Джованни, его супруга - Лидия... Потемки творческого кризиса... Закат чувств... Сумерки привычек... Больница, близкий друг, погружающийся в «ночь»... Бессильные поиски просвета: тьма воспоминаний, ночной ресторан, богатая ночная вечеринка... Юная Валентина со своей маленькой «ночью» в душе... Утренний «ливень» отчаяния, откровений, откровенности, которые может быть...

Качество: BDRip 720p (исходник Blu-ray)
Контейнер (Расширение): MKV
Видео кодек: AVC
Аудио кодек: AC3
Видео: 1280x690, 6161 Кбит/сек, 23,976 кадр/сек, 0,291 Бит/[Пиксели*Кадры]
Аудио №1: русский / AC3 / 2.0 / 48 kHz / 192 kbps / 16 bit |Профессиональный (двухголосый)|
Аудио №2: Italian / AC3 / 1 / 48 kHz / 384 kbps / 16 bit
Навигация по главам(Чаптеры): естьАвтор рипа: Сообщество:

Код:

Format                                   : Matroska
Format version                           : Version 2
File size                                : 5.76 GiB
Duration                                 : 2h 2mn
Overall bit rate                         : 6 739 Kbps
Movie name                               : La notte.(1961).BDRip.720p.[denis100]
Encoded date                             : UTC 2015-03-22 10:54:16
Writing application                      : mkvmerge v5.8.0 ('No Sleep / Pillow') built on Sep  2 2012 15:37:04
Writing library                          : libebml v1.2.3 + libmatroska v1.3.0

Video
ID                                       : 1
Format                                   : AVC
Format/Info                              : Advanced Video Codec
Format profile                           : High@L4.1
Format settings, CABAC                   : Yes
Format settings, ReFrames                : 9 frames
Codec ID                                 : V_MPEG4/ISO/AVC
Duration                                 : 2h 2mn
Bit rate                                 : 6 161 Kbps
Width                                    : 1 280 pixels
Height                                   : 690 pixels
Display aspect ratio                     : 1.855
Frame rate                               : 23.976 fps
Color space                              : YUV
Chroma subsampling                       : 4:2:0
Bit depth                                : 8 bits
Scan type                                : Progressive
Bits/(Pixel*Frame)                       : 0.291
Stream size                              : 5.15 GiB (89%)
Title                                    : La notte.(1961).BDRip.720p.[denis100]
Writing library                          : x264 core 146 r2538 121396c
Encoding settings                        : cabac=1 / ref=9 / deblock=1:-3:-3 / analyse=0x3:0x133 / me=umh / subme=11 / psy=1 / psy_rd=1.00:0.00 / mixed_ref=1 / me_range=48 / chroma_me=1 / trellis=2 / 8x8dct=1 / cqm=0 / deadzone=21,11 / fast_pskip=0 / chroma_qp_offset=-2 / threads=6 / lookahead_threads=1 / sliced_threads=0 / nr=0 / decimate=1 / interlaced=0 / bluray_compat=0 / constrained_intra=0 / bframes=10 / b_pyramid=2 / b_adapt=2 / b_bias=0 / direct=3 / weightb=1 / open_gop=0 / weightp=2 / keyint=240 / keyint_min=23 / scenecut=40 / intra_refresh=0 / rc=2pass / mbtree=0 / bitrate=6161 / ratetol=1.0 / qcomp=0.60 / qpmin=0 / qpmax=69 / qpstep=4 / cplxblur=20.0 / qblur=0.5 / ip_ratio=1.40 / pb_ratio=1.30 / aq=1:1.00
Language                                 : English
Default                                  : Yes
Forced                                   : No

Audio #1
ID                                       : 2
Format                                   : AC-3
Format/Info                              : Audio Coding 3
Mode extension                           : CM (complete main)
Codec ID                                 : A_AC3
Duration                                 : 2h 2mn
Bit rate mode                            : Constant
Bit rate                                 : 192 Kbps
Channel(s)                               : 2 channels
Channel positions                        : Front: L R
Sampling rate                            : 48.0 KHz
Bit depth                                : 16 bits
Compression mode                         : Lossy
Stream size                              : 168 MiB (3%)
Title                                    : Двухголосый закадровый
Language                                 : Russian
Default                                  : Yes
Forced                                   : No

Audio #2
ID                                       : 3
Format                                   : AC-3
Format/Info                              : Audio Coding 3
Mode extension                           : CM (complete main)
Codec ID                                 : A_AC3
Duration                                 : 2h 2mn
Bit rate mode                            : Constant
Bit rate                                 : 384 Kbps
Channel(s)                               : 1 channel
Channel positions                        : Front: C
Sampling rate                            : 48.0 KHz
Bit depth                                : 16 bits
Compression mode                         : Lossy
Stream size                              : 336 MiB (6%)
Title                                    : Italian
Language                                 : Italian
Default                                  : No
Forced                                   : No

Text #1
ID                                       : 4
Format                                   : UTF-8
Codec ID                                 : S_TEXT/UTF8
Codec ID/Info                            : UTF-8 Plain Text
Title                                    : Full
Language                                 : Russian
Default                                  : No
Forced                                   : No

Text #2
ID                                       : 5
Format                                   : UTF-8
Codec ID                                 : S_TEXT/UTF8
Codec ID/Info                            : UTF-8 Plain Text
Title                                    : Full
Language                                 : English
Default                                  : No
Forced                                   : No

Menu
00:00:00.000                             : :Chapter 01
00:04:05.620                             : :Chapter 02
00:16:20.771                             : :Chapter 03
00:20:28.727                             : :Chapter 04
00:26:21.538                             : :Chapter 05
00:33:44.772                             : :Chapter 06
00:39:19.440                             : :Chapter 07
00:48:41.335                             : :Chapter 08
00:55:05.552                             : :Chapter 09
01:03:18.294                             : :Chapter 10
01:10:29.141                             : :Chapter 11
01:20:12.390                             : :Chapter 12
01:25:22.784                             : :Chapter 13
01:35:21.757                             : :Chapter 14
01:48:51.274                             : :Chapter 15
02:02:18.289                             : :Chapter 16

pb.wtf



Скачать Ночь через торрент http://i58.fastpic.ru/big/2015/0322/50/93ae4fd74f0cbd3f9c2cecb88fe13f50.png Скачать фильм Ночь через торрент бесплантно в хорошем качестве Описание::Писатель - Джованни, его супруга - Лидия... Потемки творческого кризиса... Закат чувств... Сумерки привычек... Больница, близкий ... 10 10 1
Info! Золотая раздача, скачанное не засчитывается.
Торрент: Зарегистрирован [2015-03-22 11:30] · скачан: 11 раз
Статус: √ проверено
Размер: 5.76 GB
Как cкачать? Как скачать Ночь через торрент | qTorrent

% Раздел Тема Автор DL S | L
Фильмы с авторской озвучкой [ 9.17 GB ] Ночью Эвелин вышла из могилы / La Notte Che Evelyn Usci Dalla Tomba [1971 BDRip 1080p by msltel] AVO msltel Скачать
1 | 0
Фильмы с авторской озвучкой [ 3.35 GB ] Ночью Эвелин вышла из могилы / La Notte Che Evelyn Usci Dalla Tomba [1971 BDRip 720p by msltel] AVO msltel Скачать
1 | 0
Фильмы [HD 720p, 1080p] (Хороший звук DUB, MVO) [ 10.82 GB ] Короткая ночь стеклянных кукол / La corta notte delle bambole di vetro [1971 BDRip 1080p by msltel] DVO msltel Скачать
1 | 0
Фильмы [HD 720p, 1080p] (Хороший звук DUB, MVO) [ 3.49 GB ] Короткая ночь стеклянных кукол / La corta notte delle bambole di vetro [1971 BDRip 720p by msltel] DVO msltel Скачать
1 | 0
Фильмы [HD 720p, 1080p] (Хороший звук DUB, MVO) [ 7.08 GB ] Короткая ночь стеклянных кукол / La corta notte delle bambole di vetro [1971 BDRip 720p от еnvy / NNNB] DVO еnvy Скачать
1 | 0
Фильмы [HD 720p, 1080p] (Хороший звук DUB, MVO) [ 15.49 GB ] Ночь / La Notte [1961 BDRip 1080p by msltel] DVO msltel Скачать
1 | 0
Фильмы [HD 720p, 1080p] (Хороший звук DUB, MVO) [ 6.09 GB ] Ночь / La Notte [1961 BDRip 720p by msltel] DVO msltel Скачать
1 | 0

28-11-2019 20:33  

Отключить всю рекламу на сайте

    Дорогой пользователь! Огромная просьба, поблагодарите релизера, оцените раздачу и оставьте свои комментарий, если Вы скачали Ночь через торрент бесплатно! Внесите свою лепту в развитие PiratBit!
    Комментировать посты могут только пользователи прошедшие не сложную регистрацию
    Показать сообщения:    

    Ночь через торрент
    Скачать бесплатно Ночь
    Ночь скачать торрент
    Ночь смотреть онлайн
    Cкачать фильм Ночь бесплатно
    Ночь скачать торрент в хорошем качестве
    Ночь смотреть онлайн бесплатно в хорошем качестве


    Вы не можете начинать темы
    Вы не можете отвечать на сообщения
    Вы не можете редактировать свои сообщения
    Вы не можете удалять свои сообщения
    Вы не можете голосовать в опросах
    Вы не можете прикреплять файлы к сообщениям
    Вы можете скачивать файлы