2 сезон

iTunes

MVO

1

2 сезон

iTunes

iTunes

1 сезон

RePack

30

Новинка

ВАЖНО

ИГРА 18+

pack

RePack

MK11
pack

Легкие деньги

RePack

jed

RePack

fifa19

RePack

RDR2

RePack

NEED FOR SPEED™ PAYBACK

4 сезон

9 сезон

Бесстыжие 9 сезон

Все сериалы

все сериалы на PB.wtf

RePack

FAR CRY 5

Anonymous, доброе утро, мы не успеваем собрать деньги на оплату серверов за декабрь и январь, помогите нам пожалуйста в это трудное время. В качестве благодарности мы отключим Вам всю рекламу на сайте (укажите свой ник в строку Ваше имя)!

×
  
Magnet ссылка

Замкнутая цепь / Closed Circuit (Джон Краули / John Crowley) [2013, Триллер, драма, криминал, детектив, BDRip-AVC] MVO [Лицензия] pb.wtf

Замкнутая цепь через торрент pb.wtf

Размер: 1.46 GB | Добавлен: 5 лет 8 мес. назад | Торрент скачан:326 раз
Скачать  

22-03-2015 14:34 Замкнутая цепь Скачать торрент  

Замкнутая цепь / Closed Circuit
Год выпуска: 2013
Страна: Великобритания, США / Focus Features, Working Title Films
Жанр: Триллер, драма, криминал, детектив
Продолжительность: 01:36:02
Перевод: Профессиональный (многоголосый закадровый) [Лицензия]
Субтитры: Русские, английские (Full + SDH + SDH-Colored)

Режиссер: Джон Краули / John Crowley

В ролях: Эрик Бана, Ребекка Холл, Киаран Хайндс, Джим Бродбент, Кейт Лок, Кэтерин Пресс, Патрик Уорнер, Рики Никсон, Дэниэл Туит, Зора Бишоп, Джулия Стайлз

Описание: На повестке дня — борьба с терроризмом. Угроза очередного террористического выпада объединяет экс-любовников Клодию и Мартина, зачисленных в команду сопротивления злодеям. С риском для жизни они не только устраняют угрозу, но и проверяют, на фоне главных мировых достопримечательностей, угасли ли их романтические чувства или что-то ещё искрит.



Качество: BDRip-AVC
Формат: MKV
Видео кодек: H.264
Аудио кодек: AC3
Видео: 1012x422 (2,40:1), 23,976 fps, 1405 kbps, 0.137 bit/pixel
Аудио#1: 48 kHz, AC3 Dolby Digital, 3/2 (L,C,R,l,r) + LFE ch, 384.00 kbps | RUS
Аудио#2: 48 kHz, AC3 Dolby Digital, 3/2 (L,C,R,l,r) + LFE ch, 384.00 kbps | ENG

Релиз группы:
Автор рипа: potroks

Общее
Уникальный идентификатор : 199180733664849121047128132135974095538 (0x95D8D05DC8735B5ABC88033F97084AB2)
Полное имя : Zamknutaia.Tcep'.2013.DUAL.BDRip.x264.-HELLYWOOD.mkv
Формат : Matroska
Версия формата : Version 4 / Version 2
Размер файла : 1,46 Гбайт
Продолжительность : 1 ч. 36 м.
Общий поток : 2175 Кбит/сек
Название фильма : Closed Circuit (2013) - HELLYWOOD
Дата кодирования : UTC 2015-05-14 08:07:22
Программа кодирования : mkvmerge v5.9.0 ('On The Loose') built on Dec 15 2012 16:39:58
Библиотека кодирования : libebml v1.3.0 + libmatroska v1.4.0

Видео
Идентификатор : 1
Формат : AVC
Формат/Информация : Advanced Video Codec
Профиль формата : High@L4.1
Параметр CABAC формата : Да
Параметр ReFrames формата : 10 кадров
Идентификатор кодека : V_MPEG4/ISO/AVC
Продолжительность : 1 ч. 36 м.
Битрейт : 1405 Кбит/сек
Ширина : 1012 пикселей
Высота : 422 пикселя
Соотношение сторон : 2,40:1
Режим частоты кадров : Постоянный
Частота кадров : 23,976 кадра/сек
Цветовое пространство : YUV
Субдискретизация насыщенности : 4:2:0
Битовая глубина : 8 бит
Тип развёртки : Прогрессивная
Бит/(Пиксели*Кадры) : 0.137
Размер потока : 937 Мбайт (63%)
Заголовок : potroks
Библиотека кодирования : x264 core 130 r2273 b3065e6
Настройки программы : cabac=1 / ref=10 / deblock=1:-3:-2 / analyse=0x3:0x133 / me=umh / subme=11 / psy=1 / psy_rd=1.08:0.00 / mixed_ref=1 / me_range=32 / chroma_me=1 / trellis=2 / 8x8dct=1 / cqm=0 / deadzone=21,11 / fast_pskip=0 / chroma_qp_offset=-2 / threads=9 / lookahead_threads=6 / sliced_threads=0 / nr=0 / decimate=0 / interlaced=0 / bluray_compat=0 / constrained_intra=0 / bframes=11 / b_pyramid=2 / b_adapt=2 / b_bias=0 / direct=3 / weightb=1 / open_gop=0 / weightp=2 / keyint=250 / keyint_min=23 / scenecut=40 / intra_refresh=0 / rc_lookahead=60 / rc=2pass / mbtree=0 / bitrate=1405 / ratetol=1.0 / qcomp=0.70 / qpmin=0 / qpmax=69 / qpstep=4 / cplxblur=20.0 / qblur=0.5 / vbv_maxrate=20000 / vbv_bufsize=20000 / nal_hrd=none / ip_ratio=1.35 / pb_ratio=1.25 / aq=1:0.80
Язык : English
Default : Да
Forced : Нет

Аудио #1
Идентификатор : 2
Формат : AC-3
Формат/Информация : Audio Coding 3
Расширение режима : CM (complete main)
Параметр Endianness формата : Big
Идентификатор кодека : A_AC3
Продолжительность : 1 ч. 36 м.
Вид битрейта : Постоянный
Битрейт : 384 Кбит/сек
Каналы : 6 каналов
Расположение каналов : Front: L C R, Side: L R, LFE
Частота : 48,0 КГц
Битовая глубина : 16 бит
Метод сжатия : С потерями
Размер потока : 264 Мбайт (18%)
Заголовок : MVO | DD 5.1 @ 384 kbps
Язык : Russian
Default : Да
Forced : Нет

Аудио #2
Идентификатор : 3
Формат : AC-3
Формат/Информация : Audio Coding 3
Расширение режима : CM (complete main)
Параметр Endianness формата : Big
Идентификатор кодека : A_AC3
Продолжительность : 1 ч. 36 м.
Вид битрейта : Постоянный
Битрейт : 384 Кбит/сек
Каналы : 6 каналов
Расположение каналов : Front: L C R, Side: L R, LFE
Частота : 48,0 КГц
Битовая глубина : 16 бит
Метод сжатия : С потерями
Размер потока : 264 Мбайт (18%)
Заголовок : Original | DD 5.1 @ 384 kbps
Язык : English
Default : Нет
Forced : Нет

Текст #1
Идентификатор : 4
Формат : UTF-8
Идентификатор кодека : S_TEXT/UTF8
Идентификатор кодека/Информация : UTF-8 Plain Text
Заголовок : Дмитрий Виноградов
Язык : Russian
Default : Нет
Forced : Нет

Текст #2
Идентификатор : 5
Формат : UTF-8
Идентификатор кодека : S_TEXT/UTF8
Идентификатор кодека/Информация : UTF-8 Plain Text
Заголовок : Full
Язык : English
Default : Нет
Forced : Нет

Текст #3
Идентификатор : 6
Формат : UTF-8
Идентификатор кодека : S_TEXT/UTF8
Идентификатор кодека/Информация : UTF-8 Plain Text
Заголовок : SDH-Colored
Язык : English
Default : Нет
Forced : Нет

Текст #4
Идентификатор : 7
Формат : UTF-8
Идентификатор кодека : S_TEXT/UTF8
Идентификатор кодека/Информация : UTF-8 Plain Text
Заголовок : SDH
Язык : English
Default : Нет
Forced : Нет

Меню
00:00:00.000 : en:(01)00:00:00:000
00:05:04.595 : en:(02)00:05:04:595
00:10:29.879 : en:(03)00:10:29:879
00:15:28.844 : en:(04)00:15:28:844
00:21:37.754 : en:(05)00:21:37:754
00:25:39.829 : en:(06)00:25:39:829
00:30:22.821 : en:(07)00:30:22:821
00:34:12.592 : en:(08)00:34:12:592
00:40:17.915 : en:(09)00:40:17:915
00:45:10.416 : en:(10)00:45:10:416
00:50:56.928 : en:(11)00:50:56:928
00:54:49.119 : en:(12)00:54:49:119
01:02:06.139 : en:(13)01:02:06:139
01:05:46.984 : en:(14)01:05:46:984
01:11:58.230 : en:(15)01:11:58:230
01:16:25.038 : en:(16)01:16:25:038
01:19:44.321 : en:(17)01:19:44:321
01:22:34.449 : en:(18)01:22:34:449
01:27:59.983 : en:(19)01:27:59:983
01:31:54.967 : en:(20)01:31:54:967
01:36:01.297 : en:(21)01:36:01:297

pb.wtf



Скачать Замкнутая цепь через торрент https://pic1.kartinco.top/images/10/gyfpb.jpg Скачать фильм Замкнутая цепь через торрент бесплантно в хорошем качестве Описание: На повестке дня — борьба с терроризмом. Угроза очередного террористического выпада объединяет экс-любовников Клодию и Мартина, ... 9.3 10 18
Info! Золотая раздача, скачанное не засчитывается.
Торрент: Зарегистрирован [2015-05-14 08:13] · скачан: 326 раз
Статус: √ проверено
Размер: 1.46 GB
Как cкачать? Как скачать Замкнутая цепь через торрент | UTorrent

% Раздел Тема Автор DL S | L
Фильмы 2013 [DVDrip, WEB-DLRip, HDrip] [ 1.45 GB ] Замкнутая цепь / Closed Circuit [2013 HDRip MVO ] Ворон Скачать
1 | 0
Фильмы [HD 720p, 1080p] (Хороший звук DUB, MVO) [ 11.08 GB ] Замкнутая цепь / Closed Circuit [2013 BDRip 1080p многоголосый [] Ворон Скачать
1 | 0
Фильмы [HD 720p, 1080p] (Хороший звук DUB, MVO) [ 6.68 GB ] Замкнутая цепь / Closed Circuit [2013 BDRip 1080p MVO] Ворон Скачать
1 | 0


Последний раз редактировалось: potroks (2015-05-14 08:13), всего редактировалось 1 раз

28-11-2019 20:33  

Отключить всю рекламу на сайте

22-03-2015 18:23 Замкнутая цепь Скачать торрент  

Соломон Немни писал(а):

Я может чо путаю, но он в Апреле ещё того года уже был на трекерах. Какие отличия то тут? Лишь Перевод: (многоголосый закадровый)? Всё?
Там то был от Виноградова.

ну как бы есть разница - я вот лучше подожду многоголосый/дубляж, пусть и на полгода позже. есть, конечно, исключения - фильмы, которые официально никогда не будут озвучены, просто потому, что их не будет в прокате.pb.wtf



22-03-2015 18:39 Замкнутая цепь Скачать торрент  

посмотрю на работе, спасибоpb.wtf



14-05-2015 08:13 Замкнутая цепь Скачать торрент  

замена на лицензиюpb.wtf



14-05-2015 09:11 Замкнутая цепь Скачать торрент  

Это лицензия. Дубляжа наверное не будетpb.wtf



    Дорогой пользователь! Огромная просьба, поблагодарите релизера, оцените раздачу и оставьте свои комментарий, если Вы скачали Замкнутая цепь через торрент бесплатно! Внесите свою лепту в развитие PiratBit!
    Комментировать посты могут только пользователи прошедшие не сложную регистрацию
    Показать сообщения:    

    Замкнутая цепь через торрент
    Скачать бесплатно Замкнутая цепь
    Замкнутая цепь скачать торрент
    Замкнутая цепь смотреть онлайн
    Cкачать фильм Замкнутая цепь бесплатно
    Замкнутая цепь скачать торрент в хорошем качестве
    Замкнутая цепь смотреть онлайн бесплатно в хорошем качестве


    Вы не можете начинать темы
    Вы не можете отвечать на сообщения
    Вы не можете редактировать свои сообщения
    Вы не можете удалять свои сообщения
    Вы не можете голосовать в опросах
    Вы не можете прикреплять файлы к сообщениям
    Вы можете скачивать файлы