Ссылка на приватное зеркало нашего сайта всего за 1$. Внимание количество ограничено!!!

2 сезон

iTunes

1 сезон

1

iTunes

iTunes

iTunes

1 сезон

RePack

30

ИГРА 18+

pack

ВАЖНО

!!Акция!!

Alien_RageХит недели

RePack

MK11
pack

Забери бонус

RePack

jed

!!Акция!!

Alien_Rage

RePack

fifa19

RePack

Assassins Creed: Odyssey

RePack

NEED FOR SPEED™ PAYBACK

4 сезон

9 сезон

Бесстыжие 9 сезон

Все сериалы

все сериалы на PB.wtf

RePack

FAR CRY 5
  

Ника / Серии:1-4 из 4 (Валентин Донсков) [2015 г., Мелодрама, SATRip] pb.wtf

Ника через торрент pb.wtf

Размер: 2.55 GB | Добавлен: 5 лет 6 мес. назад | Торрент скачан:578 раз
Скачать  

22-03-2015 17:23 Ника Скачать торрент  

НикаГод выпуска: 2015
Страна: Россия "Централ Партнершип"
Жанр: Мелодрама
Продолжительность: 4 x ~ 00:50:00

Режиссер: Валентин Донсков

В ролях: Анна Миклош, Натали Старынкевич, Сергей Чирков, Валентина Шанаева

Описание: Нику подставляет муж, и она попадает в тюрьму. Ее коварный супруг приложил максимум усилий ради того, чтобы у жены не осталось даже самого незначительного имущества.
На зоне она знакомится с "медвежатницей" Дженни, и вскоре они становятся подругами. Через два года, выйдя из тюрьмы, Дженни решает помочь Нике наказать мужа. Они собираются вернуть дом, а также заставить мужчину, чтобы тот пожалел обо всех своих проступках. Разрушив жизнь и судьбу жены, он обрек себя на нешуточные последствия.
Подруги просят помощи у родного брата Дженни – весьма успешного афериста и очень хитрого преступника. Когда эта отчаянная тройка отомстит обидчику, мстители возьмутся за дальнейшее становление справедливости и помогут людям, с коими никогда не были знакомы. Они найдут многих жертв обмана и коррупции, афер и человеческой подлости. И совсем не важно, что некоторые их действия могут вновь отправить в тюремные стены, а их противники будут очень опасными и влиятельными. Просто, наши герои не собираются больше наблюдать за этим небывалым произволом.

Качество: SATRip
Формат: AVI
Видео кодек: XviD
Аудио кодек: MP3
Видео: Xvid 720x400, 25fps, 1830kbps
Аудио: MP3, 48000Hz, stereo, 128kbps
Релиз от: Kn1GhT
Скриншоты:скриншот  скриншот  скриншот  скриншот  скриншот  скриншот  




General
Complete name : E:\4003\Nika.SATRip\Nika.01.SATRip.avi
Format : AVI
Format/Info : Audio Video Interleave
File size : 629 MiB
Duration : 44mn 40s
Overall bit rate : 1 968 Kbps
Writing application : VirtualDubMod 1.5.10.3| (build 2550/release)
Writing library : VirtualDubMod build 2550/release

Video
ID : 0
Format : MPEG-4 Visual
Format profile : Advanced Simple@L5
Format settings, BVOP : 2
Format settings, QPel : No
Format settings, GMC : No warppoints
Format settings, Matrix : Default (H.263)
Codec ID : XVID
Codec ID/Hint : XviD
Duration : 44mn 40s
Bit rate : 1 830 Kbps
Width : 720 pixels
Height : 400 pixels
Display aspect ratio : 16:9
Frame rate : 25.000 fps
Color space : YUV
Chroma subsampling : 4:2:0
Bit depth : 8 bits
Scan type : Progressive
Compression mode : Lossy
Bits/(Pixel*Frame) : 0.254
Stream size : 585 MiB (93%)
Writing library : XviD 1.2.1 (UTC 2008-12-04)

Audio
ID : 1
Format : MPEG Audio
Format version : Version 1
Format profile : Layer 3
Mode : Joint stereo
Mode extension : MS Stereo
Codec ID : 55
Codec ID/Hint : MP3
Duration : 44mn 40s
Bit rate mode : Constant
Bit rate : 128 Kbps
Channel(s) : 2 channels
Sampling rate : 48.0 KHz
Compression mode : Lossy
Stream size : 40.9 MiB (7%)
Alignment : Aligned on interleaves
Interleave, duration : 40 ms (1.00 video frame)
Interleave, preload duration : 504 ms
Writing library : LAME3.99r
Encoding settings : -m j -V 4 -q 9 -lowpass 17 -b 128

pb.wtf



Скачать Ника через торрент http://pic1.kartinco.top/images/10/8qh9q.jpg Скачать фильм Ника через торрент бесплантно в хорошем качестве Описание: Нику подставляет муж, и она попадает в тюрьму. Ее коварный супруг приложил максимум усилий ради того, чтобы у жены не осталось ... 9.1 10 14
Торрент: Зарегистрирован [2015-03-22 17:23] · скачан: 578 раз
Статус: √ проверено
Размер: 2.55 GB
Как cкачать? Как скачать Ника через торрент | qTorrent

% Раздел Тема Автор DL S | L
Зарубежные сериалы [ 12.76 GB ] Вероника Марс / Veronica Mars / Сезон: 4 / Серии: 1-8 из 8 [2019 нео-нуар WEB-DL 1080p] [MVO] killermax2013 Скачать
1 | 0
Зарубежные сериалы [ 44.87 GB ] Вероника Марс / Veronica Mars / Сезон: 4 / Серии 1-8 из 8 [2006 UHD WEB-DL 2160p] [SDR] 2xMVO [IdeaFilm BaibaKo] sheker187 Скачать
1 | 0
Зарубежные сериалы [ 110.84 GB ] Северная сторона / Northern Exposure / Сезон: 4 / Серии: 1-25 из 25 [1992-1993 BDRip 1080p] [MVO] killermax2013 Скачать
1 | 0
Наши сериалы [ 11.7 GB ] Пуанты для Плюшки / Серии: 1-4 из 4 [2015 HDTV 1080i] bober100 Скачать
1 | 0
Наши сериалы [ 2.74 GB ] Никому не говори / Серия 1-4 из 4 [2017 WEB-DLRip] bober100 Скачать
1 | 0
Наши сериалы [ 2.62 GB ] Никому не говори / Серия 1-4 из 4 / [2017 Мело SATRip] oleg8 Скачать
1 | 0
T Шерлок [ 10.89 GB ] Шерлок / Sherlock / Сезон: 4 / Серии: 1-2 из 3 [2017 WEBRip 1080p] + [Subs] killermax2013 Скачать
1 | 0

28-11-2019 20:33  

Отключить всю рекламу на сайте

    Дорогой пользователь! Огромная просьба, поблагодарите релизера, оцените раздачу и оставьте свои комментарий, если Вы скачали Ника через торрент бесплатно! Внесите свою лепту в развитие PiratBit!
    Комментировать посты могут только пользователи прошедшие не сложную регистрацию
    Показать сообщения:    

    Ника через торрент
    Скачать бесплатно Ника
    Ника скачать торрент
    Ника смотреть онлайн
    Cкачать фильм Ника бесплатно
    Ника скачать торрент в хорошем качестве
    Ника смотреть онлайн бесплатно в хорошем качестве


    Вы не можете начинать темы
    Вы не можете отвечать на сообщения
    Вы не можете редактировать свои сообщения
    Вы не можете удалять свои сообщения
    Вы не можете голосовать в опросах
    Вы не можете прикреплять файлы к сообщениям
    Вы можете скачивать файлы