Ссылка на приватное зеркало нашего сайта всего за 1$. Внимание количество ограничено!!!

2 сезон

iTunes

1 сезон

1

iTunes

iTunes

iTunes

1 сезон

RePack

30

ИГРА 18+

pack

ВАЖНО

!!Акция!!

Alien_RageХит недели

RePack

MK11
pack

Забери бонус

RePack

jed

!!Акция!!

Alien_Rage

RePack

fifa19

RePack

Assassins Creed: Odyssey

RePack

NEED FOR SPEED™ PAYBACK

4 сезон

9 сезон

Бесстыжие 9 сезон

Все сериалы

все сериалы на PB.wtf

RePack

FAR CRY 5
  

Дом / Home (Николас МакКарти ) [2014, ужасы, HDRip, Любительский (двухголосый) [den904, DeadSno] pb.wtf

Дом через торрент pb.wtf

Размер: 1.37 GB | Добавлен: 5 лет 6 мес. назад | Торрент скачан:292 раза
Скачать  

22-03-2015 20:31 Дом Скачать торрент  


Дом / Home
«It's looking for a home»

ИНФОРМАЦИЯ:
Год выпуска:2014
Страна: США
Жанр: ужасы
Продолжительность: 01:33:02
Перевод: Любительский (двухголосый) [den904, DeadSno]
Режиссер: Николас МакКарти

В Ролях:


Ная Ривера (Vera), Каталина Сандино Морено (Leigh), Эшли Рикардс (Hannah), Марк Стегер (Thin Man), Ава Акрес (Girl), Эршад Аслам (Seth), Джен Броберг (Rayanna), Роб Браунштейн (Dr. Daninsky), Тара Бак (Yolanda), Лаура Кай Чен (Dr. Kim), Ассаф Коэн (Dr. Aranda), Оливия Крочиккия (Charlene)

ОПИСАНИЕ:
Молодая девушка расследует череду странных происшествий в доме. Оказывается, предыдущий арендатор совершенно случайно вызвал дьявола...

  • Мировая премьера:9 марта 2014

    ТЕХ.ДАННЫЕ:
    Качество: HDRip
    Формат: AVI
    Видео кодек: XviD
    Аудио кодек: AC3
    Видео: XviD, 720x304 (2.35:1), 1619 kbps, 23,976 fps, 0,290 bpp
    Аудио №1: AC3 / 5.1 / 48 kHz / 448 kbps / Russian
    Аудио №2: AC3 / 5.1 / 48 kHz / 128 kbps / English



    Код:

    General
    Complete name                            : D:\Торенты\At the Devil's Door .L2.HDRip.1400Mb.avi
    Format                                   : AVI
    Format/Info                              : Audio Video Interleave
    File size                                : 1.37 GiB
    Duration                                 : 1h 33mn
    Overall bit rate                         : 2 113 Kbps
    Writing application                      : VirtualDubMod 1.5.10.2 (build 2540/release)
    Writing library                          : VirtualDubMod build 2540/release

    Video
    ID                                       : 0
    Format                                   : MPEG-4 Visual
    Format profile                           : Advanced Simple@L5
    Format settings, BVOP                    : 2
    Format settings, QPel                    : No
    Format settings, GMC                     : No warppoints
    Format settings, Matrix                  : Default (MPEG)
    Codec ID                                 : XVID
    Codec ID/Hint                            : XviD
    Duration                                 : 1h 33mn
    Bit rate                                 : 1619 Kbps
    Width                                    : 720 pixels
    Height                                   : 304 pixels
    Display aspect ratio                     : 2.35:1
    Frame rate                               : 23.976 fps
    Color space                              : YUV
    Chroma subsampling                       : 4:2:0
    Bit depth                                : 8 bits
    Scan type                                : Progressive
    Compression mode                         : Lossy
    Bits/(Pixel*Frame)                       : 0.290
    Stream size                              : 1 013 MiB (72%)
    Writing library                          : XviD 1.2.1 (UTC 2008-12-04)

    Audio #1
    ID                                       : 1
    Format                                   : AC-3
    Format/Info                              : Audio Coding 3
    Mode extension                           : CM (complete main)
    Codec ID                                 : 2000
    Duration                                 : 1h 33mn
    Bit rate mode                            : Constant
    Bit rate                                 : 448 Kbps
    Channel(s)                               : 6 channels
    Channel positions                        : Front: L C R, Side: L R, LFE
    Sampling rate                            : 48.0 KHz
    Bit depth                                : 16 bits
    Compression mode                         : Lossy
    Stream size                              : 298 MiB (21%)
    Alignment                                : Split accross interleaves
    Interleave, duration                     : 42 ms (1.00 video frame)
    Interleave, preload duration             : 500 ms

    Audio #2
    ID                                       : 2
    Format                                   : AC-3
    Format/Info                              : Audio Coding 3
    Mode extension                           : CM (complete main)
    Codec ID                                 : 2000
    Duration                                 : 1h 33mn
    Bit rate mode                            : Constant
    Bit rate                                 : 128 Kbps
    Channel(s)                               : 6 channels
    Channel positions                        : Front: L C R, Side: L R, LFE
    Sampling rate                            : 48.0 KHz
    Bit depth                                : 16 bits
    Compression mode                         : Lossy
    Stream size                              : 85.2 MiB (6%)
    Alignment                                : Split accross interleaves
    Interleave, duration                     : 42 ms (1.00 video frame)
    Interleave, preload duration             : 500 ms

    Скриншоты:


    © Оформление by Ворон
    pb.wtf



  • Скачать Дом через торрент http://pic.kartinco.top/images/6/ordi9.jpg Скачать фильм Дом через торрент бесплантно в хорошем качестве Е:Молодая девушка расследует череду странных происшествий в доме. Оказывается, предыдущий арендатор совершенно случайно вызвал дьявола... ... 8.8 10 6
    Торрент: Зарегистрирован [2015-03-22 20:31] · скачан: 292 раз
    Статус: T временная
    Размер: 1.37 GB
    Как cкачать? Как скачать Дом через торрент | qTorrent

    % Раздел Тема Автор DL S | L
    Фильмы [HD 720p, 1080p] (Хороший звук DUB, MVO) [ 16.94 GB ] Один дома / Home Alone [19901992 г BDRip 720p лицензия] Ke$h@ Скачать
    1 | 0
    Фильмы до 2000 г. [ 4.44 GB ] Один Дома / Home Alone [1990 HDRip] [Все переводы] killermax2013 Скачать
    1 | 0
    Научно-популярные фильмы [ 4.37 GB ] Дом - Свидание с планетой / HOME [2009 Документальный BDRip 1080p] DEVI Скачать
    1 | 0
    HD ролики [ 1.88 GB ] Real Teen Amateurs Clips / Подростковое домашнее порно [2008 Homevideo Amateur All sex] DEVI Скачать
    1 | 0
    Фильмы до 2000 г. [ 1.37 GB ] Один дома / Home Alone [1990 DVDRip] DEVI Скачать
    1 | 0
    Русское любительское видео [ 71 MB ] Домашнее видео / Home sex [2013 Home Classic Pov. CamRip] Pir@tya2010 Скачать
    1 | 0
    Фильмы 2010 [ 1.37 GB ] Братство танца: Возвращение домой / Stomp the Yard 2: Homecoming [2010 DVDRip] [ лицензия ] MIO2008 Скачать
    1 | 0

    28-11-2019 20:33  

    Отключить всю рекламу на сайте

    23-03-2015 07:56 Дом Скачать торрент  

    совершенно случайно вызвал дьявола... sarcastic бедняга наверное палец обжег выругался а получилось дьявола вызвалpb.wtf



    24-03-2015 16:51 Дом Скачать торрент  

    АллаЛа писал(а):

    совершенно случайно вызвал дьявола... sarcastic бедняга наверное палец обжег выругался а получилось дьявола вызвал

    roflpb.wtf



      Дорогой пользователь! Огромная просьба, поблагодарите релизера, оцените раздачу и оставьте свои комментарий, если Вы скачали Дом через торрент бесплатно! Внесите свою лепту в развитие PiratBit!
      Комментировать посты могут только пользователи прошедшие не сложную регистрацию
      Показать сообщения:    

      Дом через торрент
      Скачать бесплатно Дом
      Дом скачать торрент
      Дом смотреть онлайн
      Cкачать фильм Дом бесплатно
      Дом скачать торрент в хорошем качестве
      Дом смотреть онлайн бесплатно в хорошем качестве


      Вы не можете начинать темы
      Вы не можете отвечать на сообщения
      Вы не можете редактировать свои сообщения
      Вы не можете удалять свои сообщения
      Вы не можете голосовать в опросах
      Вы не можете прикреплять файлы к сообщениям
      Вы можете скачивать файлы