Ссылка на приватное зеркало нашего сайта всего за 1$. Внимание количество ограничено!!!

2 сезон

iTunes

1 сезон

1

iTunes

iTunes

iTunes

1 сезон

RePack

30

ИГРА 18+

pack

ВАЖНО

!!Акция!!

Alien_RageХит недели

RePack

MK11
pack

Забери бонус

RePack

jed

!!Акция!!

Alien_Rage

RePack

fifa19

RePack

Assassins Creed: Odyssey

RePack

NEED FOR SPEED™ PAYBACK

4 сезон

9 сезон

Бесстыжие 9 сезон

Все сериалы

все сериалы на PB.wtf

RePack

FAR CRY 5
  

Замкнутая цепь / Closed Circuit (Джон Краули ) [2013, триллер, драма, криминал, BDRip 1080p, MVO] pb.wtf

Замкнутая цепь через торрент pb.wtf

Размер: 6.68 GB | Добавлен: 5 лет 7 мес. назад | Торрент скачан:115 раз
Скачать  

22-03-2015 22:18 Замкнутая цепь Скачать торрент  


Замкнутая цепь / Closed Circuit
«They see your every move»

ИНФОРМАЦИЯ:
Год выпуска:2013
Страна: Великобритания, США
Жанр: триллер, драма, криминал, детектив
Продолжительность: 01:36:01
Перевод: Профессиональный (многоголосый)
Субтитры: английские (SDH), английские,
Режиссер: Джон Краули

В Ролях:


Эрик Бана (Martin Rose), Ребекка Холл (Claudia Simmons-Howe), Киран Хайндс (Devlin), Джим Бродбент (Attorney General), Кейт Лок (Mother), Кэтерин Пресс (Pregnant Daughter), Патрик Уорнер (Young Man on Cellphone), Рики Никсон (Fish Trader), Дэниэл Туит (Drinks Trader), Зора Бишоп (Mother of Toddler), Вики Джэм (Teenage Girl), Зара Ахмади (Woman on Cellphone)

ОПИСАНИЕ:
На повестке дня - борьба с терроризмом. Угроза очередного террористического выпада объединяет экс-любовников Клодию и Мартина, зачисленных в команду сопротивления злодеям. С риском для жизни они не только устраняют угрозу, но и проверяют, на фоне главных мировых достопримечательностей, угасли ли их романтические чувства или что-то ещё искрит.

  • Мировая премьера:28 августа 2013

    ТЕХ.ДАННЫЕ:
    Качество: BDRip 1080p
    Формат: MKV
    Видео кодек: AVC
    Аудио кодек: AC3, DTS
    Видео: AVC, 1920x800 (2.40:1), 8266 kbps, 23,976 fps, 0,224 bpp
    Аудио №1: русский / AC3 / 2.0 / 48 kHz / 192 kbps / 16 bit ||
    Аудио №2: английский / DTS / 5.1 / 48 kHz / 1510 kbps / 24 bit
    Навигация по главам: есть



    Код:

    General
    Unique ID                                : 212259375850758398165569166397973616113 (0x9FAFAB360121A95BAD6BE9948F8255F1)
    Complete name                            : D:\Торенты\Closed.Circuit.2013.BDRip.1080p.mkv
    Format                                   : Matroska
    Format version                           : Version 2
    File size                                : 6.68 GiB
    Duration                                 : 1h 36mn
    Overall bit rate                         : 9 966 Kbps
    Encoded date                             : UTC 2015-03-21 19:00:41
    Writing application                      : mkvmerge v4.0.0 ('The Stars were mine') сборка от Jun  6 2010 16:18:42
    Writing library                          : libebml v1.0.0 + libmatroska v1.0.0

    Video
    ID                                       : 1
    Format                                   : AVC
    Format/Info                              : Advanced Video Codec
    Format profile                           : High@L4.1
    Format settings, CABAC                   : Yes
    Format settings, ReFrames                : 5 frames
    Codec ID                                 : V_MPEG4/ISO/AVC
    Duration                                 : 1h 36mn
    Bit rate                                 : 8 266 Kbps
    Width                                    : 1 920 pixels
    Height                                   : 800 pixels
    Display aspect ratio                     : 2.40:1
    Frame rate                               : 23.976 fps
    Color space                              : YUV
    Chroma subsampling                       : 4:2:0
    Bit depth                                : 8 bits
    Scan type                                : Progressive
    Bits/(Pixel*Frame)                       : 0.224
    Stream size                              : 5.41 GiB (81%)
    Writing library                          : x264 core 140 r2377 1ca7bb9
    Encoding settings                        : cabac=1 / ref=5 / deblock=1:-3:-3 / analyse=0x3:0x113 / me=umh / subme=8 / psy=1 / psy_rd=1.00:0.00 / mixed_ref=1 / me_range=16 / chroma_me=1 / trellis=1 / 8x8dct=1 / cqm=0 / deadzone=21,11 / fast_pskip=1 / chroma_qp_offset=-2 / threads=12 / lookahead_threads=2 / sliced_threads=0 / nr=0 / decimate=1 / interlaced=0 / bluray_compat=0 / constrained_intra=0 / bframes=3 / b_pyramid=2 / b_adapt=2 / b_bias=0 / direct=3 / weightb=1 / open_gop=0 / weightp=2 / keyint=240 / keyint_min=24 / scenecut=40 / intra_refresh=0 / rc_lookahead=50 / rc=2pass / mbtree=1 / bitrate=8266 / ratetol=1.0 / qcomp=0.60 / qpmin=0 / qpmax=69 / qpstep=4 / cplxblur=20.0 / qblur=0.5 / ip_ratio=1.40 / aq=1:1.00
    Language                                 : English
    Default                                  : No
    Forced                                   : No

    Audio #1
    ID                                       : 2
    Format                                   : AC-3
    Format/Info                              : Audio Coding 3
    Mode extension                           : CM (complete main)
    Codec ID                                 : A_AC3
    Duration                                 : 1h 36mn
    Bit rate mode                            : Constant
    Bit rate                                 : 192 Kbps
    Channel(s)                               : 2 channels
    Channel positions                        : Front: L R
    Sampling rate                            : 48.0 KHz
    Bit depth                                : 16 bits
    Compression mode                         : Lossy
    Stream size                              : 132 MiB (2%)
    Language                                 : Russian
    Default                                  : Yes
    Forced                                   : Yes

    Audio #2
    ID                                       : 3
    Format                                   : DTS
    Format/Info                              : Digital Theater Systems
    Codec ID                                 : A_DTS
    Duration                                 : 1h 36mn
    Bit rate mode                            : Constant
    Bit rate                                 : 1 510 Kbps
    Channel(s)                               : 6 channels
    Channel positions                        : Front: L C R, Side: L R, LFE
    Sampling rate                            : 48.0 KHz
    Bit depth                                : 24 bits
    Compression mode                         : Lossy
    Delay relative to video                  : 11ms
    Stream size                              : 1.01 GiB (15%)
    Language                                 : English
    Default                                  : No
    Forced                                   : No

    Text #1
    ID                                       : 4
    Format                                   : UTF-8
    Codec ID                                 : S_TEXT/UTF8
    Codec ID/Info                            : UTF-8 Plain Text
    Title                                    : SDH
    Language                                 : English
    Default                                  : No
    Forced                                   : No

    Text #2
    ID                                       : 5
    Format                                   : UTF-8
    Codec ID                                 : S_TEXT/UTF8
    Codec ID/Info                            : UTF-8 Plain Text
    Language                                 : English
    Default                                  : No
    Forced                                   : No

    Menu
    00:00:00.000                             : en:00:00:00.000
    00:05:04.596                             : en:00:05:04.596
    00:10:29.879                             : en:00:10:29.879
    00:15:28.845                             : en:00:15:28.845
    00:21:37.755                             : en:00:21:37.755
    00:25:39.830                             : en:00:25:39.830
    00:30:22.821                             : en:00:30:22.821
    00:34:12.592                             : en:00:34:12.592
    00:40:17.915                             : en:00:40:17.915
    00:45:10.416                             : en:00:45:10.416
    00:50:56.929                             : en:00:50:56.929
    00:54:49.119                             : en:00:54:49.119
    01:02:06.139                             : en:01:02:06.139
    01:05:46.985                             : en:01:05:46.985
    01:11:58.231                             : en:01:11:58.231
    01:16:25.039                             : en:01:16:25.039
    01:19:44.321                             : en:01:19:44.321
    01:22:34.449                             : en:01:22:34.449
    01:27:59.983                             : en:01:27:59.983
    01:31:54.968                             : en:01:31:54.968

    Скриншоты:


    © Оформление by Ворон
    pb.wtf



  • Скачать Замкнутая цепь через торрент http://pic.kartinco.top/images/6/ordi9.jpg Скачать фильм Замкнутая цепь через торрент бесплантно в хорошем качестве Е:На повестке дня - борьба с терроризмом. Угроза очередного террористического выпада объединяет экс-любовников Клодию и Мартина, ... 10 10 3
    Торрент: Зарегистрирован [2015-03-22 22:18] · скачан: 115 раз
    Статус: √ проверено
    Размер: 6.68 GB
    Как cкачать? Как скачать Замкнутая цепь через торрент | qTorrent

    % Раздел Тема Автор DL S | L
    Фильмы 2013 [DVDrip, WEB-DLRip, HDrip] [ 1.46 GB ] Замкнутая цепь / Closed Circuit [2013 BDRip-AVC] MVO [] potroks Скачать
    1 | 0
    Фильмы 2013 [DVDrip, WEB-DLRip, HDrip] [ 1.45 GB ] Замкнутая цепь / Closed Circuit [2013 HDRip MVO ] Ворон Скачать
    1 | 0
    Фильмы [HD 720p, 1080p] (Хороший звук DUB, MVO) [ 11.08 GB ] Замкнутая цепь / Closed Circuit [2013 BDRip 1080p многоголосый [] Ворон Скачать
    1 | 0

    28-11-2019 20:33  

    Отключить всю рекламу на сайте

      Дорогой пользователь! Огромная просьба, поблагодарите релизера, оцените раздачу и оставьте свои комментарий, если Вы скачали Замкнутая цепь через торрент бесплатно! Внесите свою лепту в развитие PiratBit!
      Комментировать посты могут только пользователи прошедшие не сложную регистрацию
      Показать сообщения:    

      Замкнутая цепь через торрент
      Скачать бесплатно Замкнутая цепь
      Замкнутая цепь скачать торрент
      Замкнутая цепь смотреть онлайн
      Cкачать фильм Замкнутая цепь бесплатно
      Замкнутая цепь скачать торрент в хорошем качестве
      Замкнутая цепь смотреть онлайн бесплатно в хорошем качестве


      Вы не можете начинать темы
      Вы не можете отвечать на сообщения
      Вы не можете редактировать свои сообщения
      Вы не можете удалять свои сообщения
      Вы не можете голосовать в опросах
      Вы не можете прикреплять файлы к сообщениям
      Вы можете скачивать файлы