Ссылка на приватное зеркало нашего сайта всего за 1$. Внимание количество ограничено!!!

2 сезон

iTunes

1 сезон

1

2 сезон

2 сезон

iTunes

1 сезон

RePack

30

Ultimate

ВАЖНО

ИГРА 18+

pack

RePack

MK11
pack

Забери бонус

RePack

jed

!!Акция!!

Alien_Rage

RePack

fifa19

RePack

Assassins Creed: Odyssey

RePack

NEED FOR SPEED™ PAYBACK

4 сезон

9 сезон

Бесстыжие 9 сезон

Все сериалы

все сериалы на PB.wtf

RePack

FAR CRY 5
  

Меч мести / Sword of Vengeance (Jim Weedon) [2015, Великобритания, боевик, WEB-DLRip) VO [den904] + ENG pb.wtf

Меч мести через торрент pb.wtf

Размер: 1.37 GB | Добавлен: 5 лет 8 мес. назад | Торрент скачан:517 раз
Скачать  

23-03-2015 03:25 Меч мести Скачать торрент  

Меч мести / Sword of Vengeance


  • Год выпуска: 2015
  • Страна: Великобритания
  • Жанр: боевик
  • Продолжительность: 01:26:53
  • Перевод: Любительский (одноголосый) [den904]

  • Режиссер: Jim Weedon
  • В ролях:

    Стэнли Вебер (Shadow Walker), Эдвард Экрут (Romain), Misha Berich (Marin), Пит Чеффи (Lucan), Джанни Джардинелли (Artus), Milica Jevtic (Udela), Vid Krkeljic (Wann), Дэйв Леджено (Osgar), Nenad Pecinar (Kenway), Карел Роден (Durant), Эд Скрейн (Treden), Аннабелль Уоллис (Anna)

  • Описание:
    После победы в битве при Гастингсе Вильгельм Завоеватель отправил свою армию на север Англии для совершения свирепого разорительного вторжения. Самый грозный полководец короля, граф Дюран, вырезал сто тысяч саксов и разорил их земли. Теперь Дюран правит севером вместе с сыновьями Артусом и Романом. Уцелевшие живут в постоянном страхе. Но загадочный чужестранец вскоре возглавит их восстание.
  • Рейтинг:



  • Качество: WEB-DLRip
  • Формат: :AVI
  • Видео кодек: XviD
  • Аудио кодек: AC3
  • Видео: 720x304 (2.35:1), 1859 kbps, 23,976 fps, 0,354 bpp
  • Аудио №1: Русский 2.0 / 48 kHz / 192 kbps / 16 bit
  • Аудио №2: Английский 2.0 / 48 kHz / 192 kbps / 16 bit
  • Релиз от: GEKADOL

    Код:

    General
    Complete name                            : D:\Фильмы\Sword.of.Vengeance.2015.WEB-DLRip.avi
    Format                                   : AVI
    Format/Info                              : Audio Video Interleave
    File size                                : 1.37 GiB
    Duration                                 : 1h 26mn
    Overall bit rate                         : 2 258 Kbps
    Writing application                      : VirtualDubMod 1.5.10.3 | www.virtualdub-fr.org || (build 2550/release)
    Writing library                          : VirtualDubMod build 2550/release

    Video
    ID                                       : 0
    Format                                   : MPEG-4 Visual
    Format profile                           : Advanced Simple@L5
    Format settings, BVOP                    : 1
    Format settings, QPel                    : No
    Format settings, GMC                     : No warppoints
    Format settings, Matrix                  : Custom
    Codec ID                                 : XVID
    Codec ID/Hint                            : XviD
    Duration                                 : 1h 26mn
    Bit rate                                 : 1 860 Kbps
    Width                                    : 720 pixels
    Height                                   : 304 pixels
    Display aspect ratio                     : 2.35:1
    Frame rate                               : 23.976 fps
    Color space                              : YUV
    Chroma subsampling                       : 4:2:0
    Bit depth                                : 8 bits
    Scan type                                : Progressive
    Compression mode                         : Lossy
    Bits/(Pixel*Frame)                       : 0.354
    Stream size                              : 1.13 GiB (82%)
    Writing library                          : XviD 73

    Audio #1
    ID                                       : 1
    Format                                   : AC-3
    Format/Info                              : Audio Coding 3
    Mode extension                           : CM (complete main)
    Codec ID                                 : 2000
    Duration                                 : 1h 26mn
    Bit rate mode                            : Constant
    Bit rate                                 : 192 Kbps
    Channel(s)                               : 2 channels
    Channel positions                        : Front: L R
    Sampling rate                            : 48.0 KHz
    Bit depth                                : 16 bits
    Compression mode                         : Lossy
    Stream size                              : 119 MiB (9%)
    Alignment                                : Split accross interleaves
    Interleave, duration                     : 42 ms (1.00 video frame)
    Interleave, preload duration             : 500 ms

    Audio #2
    ID                                       : 2
    Format                                   : AC-3
    Format/Info                              : Audio Coding 3
    Mode extension                           : CM (complete main)
    Codec ID                                 : 2000
    Duration                                 : 1h 26mn
    Bit rate mode                            : Constant
    Bit rate                                 : 192 Kbps
    Channel(s)                               : 2 channels
    Channel positions                        : Front: L R
    Sampling rate                            : 48.0 KHz
    Bit depth                                : 16 bits
    Compression mode                         : Lossy
    Stream size                              : 119 MiB (9%)
    Alignment                                : Split accross interleaves
    Interleave, duration                     : 42 ms (1.00 video frame)
    Interleave, preload duration             : 500 ms




    Скриншоты:



    pb.wtf



  • Скачать Меч мести через торрент http://i4.imageban.ru/out/2015/03/23/67dd60b51daa286b8e8849043f804afe.jpg Скачать фильм Меч мести через торрент бесплантно в хорошем качестве Описание: После победы в битве при Гастингсе Вильгельм Завоеватель отправил свою армию на север Англии для совершения свирепого ... 9.7 10 12
    Info! Золотая раздача, скачанное не засчитывается.
    Торрент: Зарегистрирован [2015-03-23 03:25] · скачан: 517 раз
    Статус: T временная
    Размер: 1.37 GB
    Как cкачать? Как скачать Меч мести через торрент | qTorrent

    28-11-2019 20:33  

    Отключить всю рекламу на сайте

    23-03-2015 03:40 Меч мести Скачать торрент  

    как фильм?pb.wtf



    23-03-2015 07:01 Меч мести Скачать торрент  

    неважно!зато постер вон какой)pb.wtf



    25-03-2015 19:59 Меч мести Скачать торрент  

    И название..в общем ..вот вам и секрет успеха...крутое название ...крутой постер и смотреть не надо -) да и снимать.. не обязательноpb.wtf



      Дорогой пользователь! Огромная просьба, поблагодарите релизера, оцените раздачу и оставьте свои комментарий, если Вы скачали Меч мести через торрент бесплатно! Внесите свою лепту в развитие PiratBit!
      Комментировать посты могут только пользователи прошедшие не сложную регистрацию
      Показать сообщения:    

      Меч мести через торрент
      Скачать бесплатно Меч мести
      Меч мести скачать торрент
      Меч мести смотреть онлайн
      Cкачать фильм Меч мести бесплатно
      Меч мести скачать торрент в хорошем качестве
      Меч мести смотреть онлайн бесплатно в хорошем качестве


      Вы не можете начинать темы
      Вы не можете отвечать на сообщения
      Вы не можете редактировать свои сообщения
      Вы не можете удалять свои сообщения
      Вы не можете голосовать в опросах
      Вы не можете прикреплять файлы к сообщениям
      Вы можете скачивать файлы