2 сезон

iTunes

1 сезон

1

iTunes

iTunes

iTunes

1 сезон

RePack

30

ИГРА 18+

pack

ВАЖНО

!!Акция!!

Alien_RageХит недели

RePack

MK11
pack

Забери бонус

RePack

jed

!!Акция!!

Alien_Rage

RePack

fifa19

RePack

Assassins Creed: Odyssey

RePack

NEED FOR SPEED™ PAYBACK

4 сезон

9 сезон

Бесстыжие 9 сезон

Все сериалы

все сериалы на PB.wtf

RePack

FAR CRY 5
  

Сердце дракона 3: Проклятье чародея / Dragonheart 3: The Sorcerer's Curse (Колин Тиг ) [2015, фэнтези, приключения, BDRip 1080p, Дубляж] pb.wtf

Сердце дракона 3: Проклятье чародея через торрент pb.wtf

Размер: 11.66 GB | Добавлен: 5 лет 7 мес. назад | Торрент скачан:291 раз
Скачать  

24-03-2015 01:37 Сердце дракона 3: Проклятье чародея Скачать торрент  


Сердце дракона 3: Проклятье чародея / Dragonheart 3: The Sorcerer's Curse


ИНФОРМАЦИЯ:
Год выпуска:2015
Страна: США
Жанр: фэнтези, приключения
Продолжительность: 01:37:10
Перевод: Профессиональный (Дубляж) [BlueBird]
Субтитры: русские, английские,
Режиссер: Колин Тиг

В Ролях:


Бен Кингсли (Drago, озвучка), Джулиан Моррис (Gareth), Тэмзин Мёрчант (Rhonu), Джасса Ахлувалиа (Lorne), Джонджо О’Нил (Brude), Джэйк Каррен (Traevor), Доминик Мафэм (Sir Horsa), Кристофер Фэйрбэнк (Potter), Ozama Oancea (Begilda), Гарри Смит (Kalin), Дэниэл Эверитт-Лок (Cuthbert), Шербан Челя (Sir Wulfric)

ОПИСАНИЕ:
В условной, мифологической Британии идет война между рыцарями, охраняющими южные земли и кельтскими племенами с севера. Их разделяет знаменитый Адрианов Вал. Когда на землю падает звезда, юный и отважный воин Гарет решает отправиться на ее поиски. Ведь согласно легендам, там, куда упала звезда, хранятся несметные сокровища. Он перелезает через стену и оказывается в таинственном северном лесу, населенном колдунами, девами-воительницами и драконами...

  • Мировая премьера:10 февраля 2015

    ТЕХ.ДАННЫЕ:
    Качество: BDRip 1080p
    Формат: MKV
    Видео кодек: AVC
    Аудио кодек: AC3, DTS
    Видео: AVC, 1920x1080 (16:9), 14941 kbps, 23,976 fps, 0,301 bpp
    Аудио №1: русский / AC3 / 5.1 / 48 kHz / 384 kbps / 16 bit ||
    Аудио №2: английский / DTS / 5.1 / 48 kHz / 1510 kbps / 24 bit
    Навигация по главам: есть



    Код:

    General
    Unique ID                                : 185615958112263668038697140470461668209 (0x8BA4554BD6A7632A83AFE9839DC29B71)
    Complete name                            : D:\Торенты\Сердце дракона 3.1080p. Ton.mkv
    Format                                   : Matroska
    Format version                           : Version 4 / Version 2
    File size                                : 11.7 GiB
    Duration                                 : 1h 37mn
    Overall bit rate                         : 17.2 Mbps
    Movie name                               : Сердце дракона 3. (Tonik)
    Encoded date                             : UTC 2015-03-21 19:07:20
    Writing application                      : mkvmerge v7.1.0 ('Good Love') 64bit built on Jul 27 2014 13:06:55
    Writing library                          : libebml v1.3.0 + libmatroska v1.4.1
    Attachment                               : Yes

    Video
    ID                                       : 1
    Format                                   : AVC
    Format/Info                              : Advanced Video Codec
    Format profile                           : High@L4.1
    Format settings, CABAC                   : Yes
    Format settings, ReFrames                : 4 frames
    Codec ID                                 : V_MPEG4/ISO/AVC
    Duration                                 : 1h 37mn
    Bit rate                                 : 14.9 Mbps
    Width                                    : 1 920 pixels
    Height                                   : 1 080 pixels
    Display aspect ratio                     : 16:9
    Frame rate                               : 23.976 fps
    Color space                              : YUV
    Chroma subsampling                       : 4:2:0
    Bit depth                                : 8 bits
    Scan type                                : Progressive
    Bits/(Pixel*Frame)                       : 0.301
    Stream size                              : 10.1 GiB (87%)
    Writing library                          : x264 core 142 r2491 24e4fed
    Encoding settings                        : cabac=1 / ref=4 / deblock=1:-3:-3 / analyse=0x3:0x133 / me=tesa / subme=11 / psy=1 / psy_rd=1.05:0.00 / mixed_ref=1 / me_range=24 / chroma_me=1 / trellis=2 / 8x8dct=1 / cqm=0 / deadzone=21,11 / fast_pskip=0 / chroma_qp_offset=-2 / threads=12 / lookahead_threads=3 / sliced_threads=0 / nr=0 / decimate=1 / interlaced=0 / bluray_compat=0 / constrained_intra=0 / bframes=11 / b_pyramid=2 / b_adapt=2 / b_bias=0 / direct=3 / weightb=1 / open_gop=0 / weightp=2 / keyint=250 / keyint_min=23 / scenecut=40 / intra_refresh=0 / rc=crf / mbtree=0 / crf=17.0 / qcomp=0.70 / qpmin=0 / qpmax=69 / qpstep=4 / ip_ratio=1.40 / pb_ratio=1.30 / aq=1:0.70
    Language                                 : English
    Default                                  : Yes
    Forced                                   : No
    Matrix coefficients                      : BT.709-5, BT.1361, IEC 61966-2-4 709, SMPTE RP177

    Audio #1
    ID                                       : 2
    Format                                   : AC-3
    Format/Info                              : Audio Coding 3
    Mode extension                           : CM (complete main)
    Codec ID                                 : A_AC3
    Duration                                 : 1h 37mn
    Bit rate mode                            : Constant
    Bit rate                                 : 384 Kbps
    Channel(s)                               : 6 channels
    Channel positions                        : Front: L C R, Side: L R, LFE
    Sampling rate                            : 48.0 KHz
    Bit depth                                : 16 bits
    Compression mode                         : Lossy
    Stream size                              : 267 MiB (2%)
    Language                                 : Russian
    Default                                  : Yes
    Forced                                   : No

    Audio #2
    ID                                       : 3
    Format                                   : DTS
    Format/Info                              : Digital Theater Systems
    Codec ID                                 : A_DTS
    Duration                                 : 1h 37mn
    Bit rate mode                            : Constant
    Bit rate                                 : 1 510 Kbps
    Channel(s)                               : 6 channels
    Channel positions                        : Front: L C R, Side: L R, LFE
    Sampling rate                            : 48.0 KHz
    Bit depth                                : 24 bits
    Compression mode                         : Lossy
    Stream size                              : 1.02 GiB (9%)
    Language                                 : English
    Default                                  : No
    Forced                                   : No

    Text #1
    ID                                       : 4
    Format                                   : UTF-8
    Codec ID                                 : S_TEXT/UTF8
    Codec ID/Info                            : UTF-8 Plain Text
    Language                                 : Russian
    Default                                  : No
    Forced                                   : No

    Text #2
    ID                                       : 5
    Format                                   : UTF-8
    Codec ID                                 : S_TEXT/UTF8
    Codec ID/Info                            : UTF-8 Plain Text
    Language                                 : English
    Default                                  : No
    Forced                                   : No

    Menu
    00:00:00.000                             : en:Chapter 01
    00:05:03.303                             : en:Chapter 02
    00:10:09.817                             : en:Chapter 03
    00:15:08.115                             : en:Chapter 04
    00:19:36.425                             : en:Chapter 05
    00:24:00.355                             : en:Chapter 06
    00:27:27.812                             : en:Chapter 07
    00:33:19.163                             : en:Chapter 08
    00:38:51.787                             : en:Chapter 09
    00:43:22.308                             : en:Chapter 10
    00:49:31.134                             : en:Chapter 11
    00:52:57.966                             : en:Chapter 12
    00:59:48.251                             : en:Chapter 13
    01:07:40.806                             : en:Chapter 14
    01:12:48.197                             : en:Chapter 15
    01:18:17.818                             : en:Chapter 16
    01:22:14.804                             : en:Chapter 17
    01:26:47.577                             : en:Chapter 18
    01:30:37.932                             : en:Chapter 19
    01:31:44.832                             : en:Chapter 20

    Скриншоты:


    © Оформление by Ворон
    pb.wtf



  • Скачать Сердце дракона 3: Проклятье чародея через торрент http://pic.kartinco.top/images/6/ordi9.jpg Скачать фильм Сердце дракона 3: Проклятье чародея через торрент бесплантно в хорошем качестве Е:В условной, мифологической Британии идет война между рыцарями, охраняющими южные земли и кельтскими племенами с севера. Их разделяет ... 10 10 9
    Info! Золотая раздача, скачанное не засчитывается.
    Торрент: Зарегистрирован [2015-03-24 01:37] · скачан: 291 раз
    Статус: √ проверено
    Размер: 11.66 GB
    Как cкачать? Как скачать Сердце дракона 3: Проклятье чародея через торрент | qTorrent

    28-11-2019 20:33  

    Отключить всю рекламу на сайте

      Дорогой пользователь! Огромная просьба, поблагодарите релизера, оцените раздачу и оставьте свои комментарий, если Вы скачали Сердце дракона 3: Проклятье чародея через торрент бесплатно! Внесите свою лепту в развитие PiratBit!
      Комментировать посты могут только пользователи прошедшие не сложную регистрацию
      Показать сообщения:    

      Сердце дракона 3: Проклятье чародея через торрент
      Скачать бесплатно Сердце дракона 3: Проклятье чародея
      Сердце дракона 3: Проклятье чародея скачать торрент
      Сердце дракона 3: Проклятье чародея смотреть онлайн
      Cкачать фильм Сердце дракона 3: Проклятье чародея бесплатно
      Сердце дракона 3: Проклятье чародея скачать торрент в хорошем качестве
      Сердце дракона 3: Проклятье чародея смотреть онлайн бесплатно в хорошем качестве


      Вы не можете начинать темы
      Вы не можете отвечать на сообщения
      Вы не можете редактировать свои сообщения
      Вы не можете удалять свои сообщения
      Вы не можете голосовать в опросах
      Вы не можете прикреплять файлы к сообщениям
      Вы можете скачивать файлы