Ссылка на приватное зеркало нашего сайта всего за 1$. Внимание количество ограничено!!!

2 сезон

iTunes

1 сезон

1

iTunes

iTunes

iTunes

1 сезон

RePack

30

ИГРА 18+

pack

ВАЖНО

!!Акция!!

Alien_RageХит недели

RePack

MK11
pack

Забери бонус

RePack

jed

!!Акция!!

Alien_Rage

RePack

fifa19

RePack

Assassins Creed: Odyssey

RePack

NEED FOR SPEED™ PAYBACK

4 сезон

9 сезон

Бесстыжие 9 сезон

Все сериалы

все сериалы на PB.wtf

RePack

FAR CRY 5
  

Глушь / Дикая местность / Backcountry (Адам МакДональд / Adam MacDonald) [2014, Канада, ужасы, триллер, драма, WEB-DLRip) VO [Xixidok] pb.wtf

Глушь через торрент pb.wtf

Размер: 1.37 GB | Добавлен: 5 лет 6 мес. назад | Торрент скачан:328 раз
Скачать  

24-03-2015 05:54 Глушь Скачать торрент  

Глушь / Дикая местность / Backcountry


  • Год выпуска: 2014
  • Страна: Канада
  • Жанр: ужасы, триллер, драма
  • Продолжительность: 01:31:30
  • Перевод: Любительский (одноголосый) [Xixidok]

  • Режиссер: Адам МакДональд / Adam MacDonald
  • В ролях:

    Мисси Перегрим (Jenn), Эрик Бальфур (Brad), Николас Кэмпбелл (Ranger), Мелани Маллен (Lola), Джефф Руп (Alex), Эшли Нэй (Icecream attendant)

  • Описание:
    Городская пара оказалась без провианта посреди дикой глуши на территории хищного черного медведя.
  • Рейтинг:



  • Качество: WEB-DLRip
  • Формат: :AVI
  • Видео кодек: XviD
  • Аудио кодек: AC3
  • Видео: 720x304 (2.35:1), 1745 kbps, 23,976 fps, 0,333 bpp
  • Аудио №1: Русский 2.0 / 44 kHz / 192 kbps / 16 bit
  • Аудио №2: Английский 2.0 / 48 kHz / 192 kbps / 16 bit
  • Релиз от: GEKADOL

    Код:

    General
    Complete name                            : D:\Фильмы\Backcountry.2014.L1.WEB-DLRip.avi
    Format                                   : AVI
    Format/Info                              : Audio Video Interleave
    File size                                : 1.37 GiB
    Duration                                 : 1h 31mn
    Overall bit rate                         : 2 144 Kbps
    Writing application                      : VirtualDubMod 1.5.10.3 | www.virtualdub-fr.org || (build 2550/release)
    Writing library                          : VirtualDubMod build 2550/release

    Video
    ID                                       : 0
    Format                                   : MPEG-4 Visual
    Format profile                           : Advanced Simple@L5
    Format settings, BVOP                    : 1
    Format settings, QPel                    : No
    Format settings, GMC                     : No warppoints
    Format settings, Matrix                  : Custom
    Codec ID                                 : XVID
    Codec ID/Hint                            : XviD
    Duration                                 : 1h 31mn
    Bit rate                                 : 1 745 Kbps
    Width                                    : 720 pixels
    Height                                   : 304 pixels
    Display aspect ratio                     : 2.35:1
    Frame rate                               : 23.976 fps
    Color space                              : YUV
    Chroma subsampling                       : 4:2:0
    Bit depth                                : 8 bits
    Scan type                                : Progressive
    Compression mode                         : Lossy
    Bits/(Pixel*Frame)                       : 0.333
    Stream size                              : 1.12 GiB (81%)
    Writing library                          : XviD 73

    Audio #1
    ID                                       : 1
    Format                                   : AC-3
    Format/Info                              : Audio Coding 3
    Mode extension                           : CM (complete main)
    Codec ID                                 : 2000
    Duration                                 : 1h 31mn
    Bit rate mode                            : Constant
    Bit rate                                 : 192 Kbps
    Channel(s)                               : 2 channels
    Channel positions                        : Front: L R
    Sampling rate                            : 44.1 KHz
    Bit depth                                : 16 bits
    Compression mode                         : Lossy
    Delay relative to video                  : 34ms
    Stream size                              : 126 MiB (9%)
    Alignment                                : Split accross interleaves
    Interleave, duration                     : 42 ms (1.00 video frame)
    Interleave, preload duration             : 500 ms

    Audio #2
    ID                                       : 2
    Format                                   : AC-3
    Format/Info                              : Audio Coding 3
    Mode extension                           : CM (complete main)
    Codec ID                                 : 2000
    Duration                                 : 1h 31mn
    Bit rate mode                            : Constant
    Bit rate                                 : 192 Kbps
    Channel(s)                               : 2 channels
    Channel positions                        : Front: L R
    Sampling rate                            : 48.0 KHz
    Bit depth                                : 16 bits
    Compression mode                         : Lossy
    Delay relative to video                  : 20ms
    Stream size                              : 126 MiB (9%)
    Alignment                                : Split accross interleaves
    Interleave, duration                     : 42 ms (1.00 video frame)
    Interleave, preload duration             : 500 ms




    Скриншоты:



    pb.wtf



  • Скачать Глушь через торрент http://i6.imageban.ru/out/2015/03/24/10e1a1ab9cc8c071709a3f01cbbecc61.jpg Скачать фильм Глушь через торрент бесплантно в хорошем качестве Описание: Городская пара оказалась без провианта посреди дикой глуши на территории хищного черного ... 8.7 10 7
    Торрент: Зарегистрирован [2015-03-24 05:54] · скачан: 328 раз
    Статус: √ проверено
    Размер: 1.37 GB
    Как cкачать? Как скачать Глушь через торрент | qTorrent

    % Раздел Тема Автор DL S | L
    Фильмы 2014 (Звук TS, Cam, VO, DVO) [ 1.42 GB ] Глушь / Дикая местность / Backcountry [2014 BDRip] DVO [DeadSno & den904] Twi7ter Скачать
    1 | 0

    28-11-2019 20:33  

    Отключить всю рекламу на сайте

      Дорогой пользователь! Огромная просьба, поблагодарите релизера, оцените раздачу и оставьте свои комментарий, если Вы скачали Глушь через торрент бесплатно! Внесите свою лепту в развитие PiratBit!
      Комментировать посты могут только пользователи прошедшие не сложную регистрацию
      Показать сообщения:    

      Глушь через торрент
      Скачать бесплатно Глушь
      Глушь скачать торрент
      Глушь смотреть онлайн
      Cкачать фильм Глушь бесплатно
      Глушь скачать торрент в хорошем качестве
      Глушь смотреть онлайн бесплатно в хорошем качестве


      Вы не можете начинать темы
      Вы не можете отвечать на сообщения
      Вы не можете редактировать свои сообщения
      Вы не можете удалять свои сообщения
      Вы не можете голосовать в опросах
      Вы не можете прикреплять файлы к сообщениям
      Вы можете скачивать файлы