Ссылка на приватное зеркало нашего сайта всего за 1$. Внимание количество ограничено!!!

2 сезон

iTunes

1 сезон

1

iTunes

iTunes

iTunes

1 сезон

RePack

30

ИГРА 18+

pack

ВАЖНО

!!Акция!!

Alien_RageХит недели

RePack

MK11
pack

Забери бонус

RePack

jed

!!Акция!!

Alien_Rage

RePack

fifa19

RePack

Assassins Creed: Odyssey

RePack

NEED FOR SPEED™ PAYBACK

4 сезон

9 сезон

Бесстыжие 9 сезон

Все сериалы

все сериалы на PB.wtf

RePack

FAR CRY 5
  

Лето и дым / Summer And Smoke (Питер Гленвилл) [1961, драма, мелодрама, BDRip 720p] MVO pb.wtf

Лето и дым через торрент pb.wtf

Размер: 4.96 GB | Добавлен: 5 лет 7 мес. назад | Торрент скачан:6 раз
Скачать  

24-03-2015 06:16 Лето и дым Скачать торрент  

Лето и дым / Summer And Smoke

Год выпуска: 1961
Страна: США
Жанр: драма, мелодрама
Продолжительность: 01:58:48
Перевод: профессиональный многоголосый
Субтитры: нет

Режиссёр: Питер Гленвилл

В ролях: Джеральдин Пейдж, Рита Морено, Уна Меркел, Лоуренс Харви, Джон МакИнтайр, Томас Гомес, Памела Тиффин, Малкольм Аттербери, Ли Патрик, Макс Шоуолтер

Описание: Скромная, зажатая женщина влюбляется в молодого и энергичного студента-медика, который не торопится брать на себя какие-либо обязательства, пока не становится слишком поздно... Фильм - по пьесе Теннесси Уильямса.



Качество: BDRip 720p Сравнение с исходником
Формат: MKV
Видео кодек: H.264
Аудио кодек: AC3
Видео: 5470 Кбит/с, 1280x546, 23.976 кадра/с, 0.326 bpp
Аудио 1: русский, AC3, 192 kbps, 2 ch, 48 kHz [профессиональный многоголосый, Paramount Channel]
Аудио 2: английский, AC3, 192 kbps, 1 ch, 48 kHz [оригинал]
Оскар, 1962 год
Номинации (4):
Лучшая женская роль (Джеральдин Пейдж)
Лучшая женская роль второго плана (Уна Меркел)
Лучшая работа художника (цветные фильмы)
Лучший саундтрек для драматических/комедийных картин

Золотой глобус, 1962 год
Победитель (1):
Лучшая женская роль (драма) (Джеральдин Пейдж)

Номинации (2):
Лучший саундтрек
Самый многообещающий новичок среди женщин (Памела Тиффин)

Венецианский кинофестиваль, 1961 год
Номинации (1):
Золотой лев
frame I:945 Avg QP:19.11 size: 90813
frame P:27571 Avg QP:20.25 size: 48966
frame B:142388 Avg QP:22.36 size: 24883

Общее
Уникальный идентификатор : 223696470892897591098961360251432169617 (0xA84A5F885F818E16AB4C4BAC28737091)
Полное имя : D:VideoLeto i dym.1961.BDRip.720p.mkv
Формат : Matroska
Версия формата : Version 4 / Version 2
Размер файла : 4,96 Гбайт
Продолжительность : 1 ч. 58 м.
Общий поток : 5973 Кбит/сек
Дата кодирования : UTC 2015-03-23 14:05:24
Программа кодирования : mkvmerge v7.7.0 ('Six Voices') 64bit built on Feb 28 2015 23:39:33
Библиотека кодирования : libebml v1.3.1 + libmatroska v1.4.2
_STATISTICS_WRITING_APP : mkvmerge v7.7.0 ('Six Voices') 64bit built on Feb 28 2015 23:39:33
_STATISTICS_WRITING_DATE_UTC : 2015-03-23 14:05:24
_STATISTICS_TAGS : BPS DURATION NUMBER_OF_FRAMES NUMBER_OF_BYTES
DURATION : 01:58:48.992000000
NUMBER_OF_FRAMES : 222781
NUMBER_OF_BYTES : 171095808

Видео
Идентификатор : 1
Формат : AVC
Формат/Информация : Advanced Video Codec
Профиль формата : High@L4.1
Параметр CABAC формата : Да
Параметр ReFrames формата : 9 кадров
Идентификатор кодека : V_MPEG4/ISO/AVC
Продолжительность : 1 ч. 58 м.
Битрейт : 5470 Кбит/сек
Ширина : 1280 пикселей
Высота : 546 пикселей
Соотношение сторон : 2,35:1
Режим частоты кадров : Постоянный
Частота кадров : 23,976 кадра/сек
Цветовое пространство : YUV
Субдискретизация насыщенности : 4:2:0
Битовая глубина : 8 бит
Тип развёртки : Прогрессивная
Бит/(Пиксели*Кадры) : 0.326
Размер потока : 4,54 Гбайт (92%)
Заголовок : BDRip -- STarankov
Библиотека кодирования : x264 core 142 r2431 ac76440
Настройки программы : cabac=1 / ref=9 / deblock=1:-2:-2 / analyse=0x3:0x113 / me=umh / subme=10 / psy=1 / psy_rd=1.00:0.15 / mixed_ref=1 / me_range=32 / chroma_me=1 / trellis=2 / 8x8dct=1 / cqm=0 / deadzone=21,11 / fast_pskip=1 / chroma_qp_offset=-3 / threads=6 / lookahead_threads=1 / sliced_threads=0 / nr=0 / decimate=1 / interlaced=0 / bluray_compat=0 / constrained_intra=0 / bframes=8 / b_pyramid=2 / b_adapt=2 / b_bias=0 / direct=3 / weightb=1 / open_gop=0 / weightp=2 / keyint=230 / keyint_min=23 / scenecut=40 / intra_refresh=0 / rc_lookahead=40 / rc=crf / mbtree=0 / crf=19.0 / qcomp=0.60 / qpmin=0 / qpmax=69 / qpstep=4 / vbv_maxrate=40000 / vbv_bufsize=50000 / crf_max=0.0 / nal_hrd=none / filler=0 / ip_ratio=1.40 / pb_ratio=1.30 / aq=1:1.00
Язык : English
Default : Да
Forced : Нет
DURATION : 01:58:48.121000000
NUMBER_OF_FRAMES : 170904
NUMBER_OF_BYTES : 4978924056
_STATISTICS_WRITING_APP : mkvmerge v7.7.0 ('Six Voices') 64bit built on Feb 28 2015 23:39:33
_STATISTICS_WRITING_DATE_UTC : 2015-03-23 14:05:24
_STATISTICS_TAGS : BPS DURATION NUMBER_OF_FRAMES NUMBER_OF_BYTES

Аудио #1
Идентификатор : 2
Формат : AC-3
Формат/Информация : Audio Coding 3
Расширение режима : CM (complete main)
Параметр Endianness формата : Big
Идентификатор кодека : A_AC3
Продолжительность : 1 ч. 58 м.
Вид битрейта : Постоянный
Битрейт : 192 Кбит/сек
Каналы : 2 канала
Расположение каналов : Front: L R
Частота : 48,0 КГц
Битовая глубина : 16 бит
Метод сжатия : С потерями
Размер потока : 163 Мбайт (3%)
Заголовок : MVO (Paramount Channel)
Язык : Russian
Default : Да
Forced : Нет

Аудио #2
Идентификатор : 3
Формат : AC-3
Формат/Информация : Audio Coding 3
Расширение режима : CM (complete main)
Параметр Endianness формата : Big
Идентификатор кодека : A_AC3
Продолжительность : 1 ч. 58 м.
Вид битрейта : Постоянный
Битрейт : 192 Кбит/сек
Каналы : 1 канал
Расположение каналов : Front: C
Частота : 48,0 КГц
Битовая глубина : 16 бит
Метод сжатия : С потерями
Размер потока : 163 Мбайт (3%)
Заголовок : Original
Язык : English
Default : Нет
Forced : Нет
pb.wtf



Скачать Лето и дым через торрент http://i66.fastpic.ru/big/2015/0323/a1/e98d948cd7ca9be1f776101cf42ce4a1.jpg Скачать фильм Лето и дым через торрент бесплантно в хорошем качестве Описание: Скромная, зажатая женщина влюбляется в молодого и энергичного студента-медика, который не торопится брать на себя какие-либо ... 5.5 10 2
Info! Золотая раздача, скачанное не засчитывается.
Торрент: Зарегистрирован [2015-03-24 06:16] · скачан: 6 раз
Статус: √ проверено
Размер: 4.96 GB
Как cкачать? Как скачать Лето и дым через торрент | qTorrent

% Раздел Тема Автор DL S | L
Фильмы до 2000 г. [ 2.56 GB ] Лето и дым / Summer And Smoke [1961 BDRip-AVC] MVO msltel Скачать
1 | 0

28-11-2019 20:33  

Отключить всю рекламу на сайте

    Дорогой пользователь! Огромная просьба, поблагодарите релизера, оцените раздачу и оставьте свои комментарий, если Вы скачали Лето и дым через торрент бесплатно! Внесите свою лепту в развитие PiratBit!
    Комментировать посты могут только пользователи прошедшие не сложную регистрацию
    Показать сообщения:    

    Лето и дым через торрент
    Скачать бесплатно Лето и дым
    Лето и дым скачать торрент
    Лето и дым смотреть онлайн
    Cкачать фильм Лето и дым бесплатно
    Лето и дым скачать торрент в хорошем качестве
    Лето и дым смотреть онлайн бесплатно в хорошем качестве


    Вы не можете начинать темы
    Вы не можете отвечать на сообщения
    Вы не можете редактировать свои сообщения
    Вы не можете удалять свои сообщения
    Вы не можете голосовать в опросах
    Вы не можете прикреплять файлы к сообщениям
    Вы можете скачивать файлы