Death Stranding+DLC+АВТОАКТИВАЦИЯ

iTunes

iTunes

iTunes

1

iTunes

iTunes

iTunes

iTunes

iTunes

30
pack

$ от Little Big

ВАЖНО

!!Акция!!

Alien_RageХит недели

RePack

Resident Evil 21

ИГРА 18+

pack

RePack

jed

!!Акция!!

Alien_Rage

RePack

fifa19

RePack

Assassins Creed: Odyssey

RePack

NEED FOR SPEED™ PAYBACK

4 сезон

9 сезон

Бесстыжие 9 сезон

Все сериалы

все сериалы на PB.wtf

RePack

FAR CRY 5
  

Внутреннее пространство / Innerspace (Джо Данте) [1987, фантастика, комедия, приключения, HDTVRip 720p] DUB, 3 x MVO, 4 x AVO pb.wtf

Внутреннее пространство через торрент pb.wtf

Размер: 6.95 GB | Добавлен: 5 лет 3 мес. назад | Торрент скачан:78 раз
Скачать  

24-03-2015 11:00 Внутреннее пространство Скачать торрент  

Внутреннее пространство / Innerspace

Год выпуска: 1987
Страна: США
Жанр: фантастика, комедия, приключения
Продолжительность: 01:59:40
Перевод: дублированный, профессиональный многоголосый, авторский
Субтитры: русские, английские (все внешние)

Режиссёр: Джо Данте

В ролях: Дэннис Куэйд, Мартин Шорт, Мег Райан, Кевин МакКарти, Фиона Льюис, Вернон Уэллс, Роберт Пикардо, Уэнди Шаал, Гарольд Сильвестр, Уильям Шэллерт

Описание: Американский пилот лейтенант Так Пендлтон принимает участие в эксперименте, в процессе которого он должен быть очень сильно уменьшен в размерах и в летательном аппарате, похожем на подлодку, обследовать внутреннее пространство кролика. Но технотеррористы рушат все планы. Содержимое шприца попадает в ипохондрика Джека Паттера. Теперь террористы начинают охотиться за ничего не подозревающим Джеком. Единственная, кто ему может помочь, это девушка Така — журналистка Лидия...



Качество: HDTVRiP 720p Сравнение с исходником
Формат: MKV
Видео кодек: H.264
Аудио кодек: AC3
Видео: 4789 Кбит/с, 1280x720, 23.976 кадра/с, 0.217 bpp
Аудио 1: русский, AC3, 192 kbps, 2 ch, 48 kHz [дублированный, Варус видео]
Аудио 2: русский, AC3, 384 kbps, 6 ch, 48 kHz [профессиональный многоголосый, вариант 1]
Аудио 3: русский, AC3, 448 kbps, 6 ch, 48 kHz [авторский, Леонид Володарский]
Аудио 4: русский, AC3, 448 kbps, 6 ch, 48 kHz [авторский, Алексей Михалёв, вариант 1]

Внешние файлы:
Аудио: русский, AC3, 192 kbps, 2 ch, 48 kHz [профессиональный многоголосый, вариант 2]
Аудио: русский, AC3, 192 kbps, 2 ch, 48 kHz [профессиональный многоголосый, НТВ]
Аудио: русский, AC3, 448 kbps, 6 ch, 48 kHz [авторский, Алексей Михалёв, вариант 2]
Аудио: русский, AC3, 192 kbps, 2 ch, 48 kHz [авторский, Андрей Гаврилов]
Аудио: русский, AC3, 448 kbps, 6 ch, 48 kHz [авторский, Попов]
Аудио: английский, AC3, 448 kbps, 6 ch, 48 kHz [оригинал]
Оскар, 1988 год
Победитель (1):
Лучшие визуальные эффекты

Сатурн, 1988 год
Номинации (3):
Лучший научно-фантастический фильм
Лучший режиссер (Джо Данте)
Лучшие спецэффекты
frame I:1326 Avg QP:18.00 size:101247
frame P:37496 Avg QP:18.89 size: 48016
frame B:133294 Avg QP:21.16 size: 18577

Общее
Полное имя : D:VideoVnutrennee prostranstvo.1987.HDTVRip.720pVnutrennee prostranstvo.1987.HDTV.AVO.rus.А.Гаврилов.ac3
Формат : AC-3
Формат/Информация : Audio Coding 3
Размер файла : 164 Мбайт
Продолжительность : 1 ч. 59 м.
Режим общего битрейта : Постоянный
Общий поток : 192 Кбит/сек

Аудио
Формат : AC-3
Формат/Информация : Audio Coding 3
Расширение режима : CM (complete main)
Параметр Endianness формата : Big
Продолжительность : 1 ч. 59 м.
Вид битрейта : Постоянный
Битрейт : 192 Кбит/сек
Каналы : 2 канала
Расположение каналов : Front: L R
Частота : 48,0 КГц
Битовая глубина : 16 бит
Метод сжатия : С потерями
Размер потока : 164 Мбайт (100%)

Общее
Полное имя : D:VideoVnutrennee prostranstvo.1987.HDTVRip.720pVnutrennee prostranstvo.1987.HDTV.AVO.rus.А.Михалёв, вариант 2.ac3
Формат : AC-3
Формат/Информация : Audio Coding 3
Размер файла : 383 Мбайт
Продолжительность : 1 ч. 59 м.
Режим общего битрейта : Постоянный
Общий поток : 448 Кбит/сек

Аудио
Формат : AC-3
Формат/Информация : Audio Coding 3
Расширение режима : CM (complete main)
Параметр Endianness формата : Big
Продолжительность : 1 ч. 59 м.
Вид битрейта : Постоянный
Битрейт : 448 Кбит/сек
Каналы : 6 каналов
Расположение каналов : Front: L C R, Side: L R, LFE
Частота : 48,0 КГц
Битовая глубина : 16 бит
Метод сжатия : С потерями
Размер потока : 383 Мбайт (100%)

Общее
Полное имя : D:VideoVnutrennee prostranstvo.1987.HDTVRip.720pVnutrennee prostranstvo.1987.HDTV.AVO.rus.Попов.ac3
Формат : AC-3
Формат/Информация : Audio Coding 3
Размер файла : 383 Мбайт
Продолжительность : 1 ч. 59 м.
Режим общего битрейта : Постоянный
Общий поток : 448 Кбит/сек

Аудио
Формат : AC-3
Формат/Информация : Audio Coding 3
Расширение режима : CM (complete main)
Параметр Endianness формата : Big
Продолжительность : 1 ч. 59 м.
Вид битрейта : Постоянный
Битрейт : 448 Кбит/сек
Каналы : 6 каналов
Расположение каналов : Front: L C R, Side: L R, LFE
Частота : 48,0 КГц
Битовая глубина : 16 бит
Метод сжатия : С потерями
Размер потока : 383 Мбайт (100%)

Общее
Полное имя : D:VideoVnutrennee prostranstvo.1987.HDTVRip.720pVnutrennee prostranstvo.1987.HDTV.eng.srt
Формат : SubRip
Размер файла : 89,0 Кбайт

Текст
Формат : SubRip
Метод сжатия : Без потерь

Общее
Полное имя : D:VideoVnutrennee prostranstvo.1987.HDTVRip.720pVnutrennee prostranstvo.1987.HDTV.MVO.rus.вариант 2.ac3
Формат : AC-3
Формат/Информация : Audio Coding 3
Размер файла : 164 Мбайт
Продолжительность : 1 ч. 59 м.
Режим общего битрейта : Постоянный
Общий поток : 192 Кбит/сек

Аудио
Формат : AC-3
Формат/Информация : Audio Coding 3
Расширение режима : CM (complete main)
Параметр Endianness формата : Big
Продолжительность : 1 ч. 59 м.
Вид битрейта : Постоянный
Битрейт : 192 Кбит/сек
Каналы : 2 канала
Расположение каналов : Front: L R
Частота : 48,0 КГц
Битовая глубина : 16 бит
Метод сжатия : С потерями
Размер потока : 164 Мбайт (100%)

Общее
Полное имя : D:VideoVnutrennee prostranstvo.1987.HDTVRip.720pVnutrennee prostranstvo.1987.HDTV.MVO.rus.НТВ.ac3
Формат : AC-3
Формат/Информация : Audio Coding 3
Размер файла : 164 Мбайт
Продолжительность : 1 ч. 59 м.
Режим общего битрейта : Постоянный
Общий поток : 192 Кбит/сек

Аудио
Формат : AC-3
Формат/Информация : Audio Coding 3
Расширение режима : CM (complete main)
Параметр Endianness формата : Big
Продолжительность : 1 ч. 59 м.
Вид битрейта : Постоянный
Битрейт : 192 Кбит/сек
Каналы : 2 канала
Расположение каналов : Front: L R
Частота : 48,0 КГц
Битовая глубина : 16 бит
Метод сжатия : С потерями
Размер потока : 164 Мбайт (100%)

Общее
Полное имя : D:VideoVnutrennee prostranstvo.1987.HDTVRip.720pVnutrennee prostranstvo.1987.HDTV.Original.eng.ac3
Формат : AC-3
Формат/Информация : Audio Coding 3
Размер файла : 383 Мбайт
Продолжительность : 1 ч. 59 м.
Режим общего битрейта : Постоянный
Общий поток : 448 Кбит/сек

Аудио
Формат : AC-3
Формат/Информация : Audio Coding 3
Расширение режима : CM (complete main)
Параметр Endianness формата : Big
Продолжительность : 1 ч. 59 м.
Вид битрейта : Постоянный
Битрейт : 448 Кбит/сек
Каналы : 6 каналов
Расположение каналов : Front: L C R, Side: L R, LFE
Частота : 48,0 КГц
Битовая глубина : 16 бит
Метод сжатия : С потерями
Размер потока : 383 Мбайт (100%)

Общее
Полное имя : D:VideoVnutrennee prostranstvo.1987.HDTVRip.720pVnutrennee prostranstvo.1987.HDTV.rus.srt
Формат : SubRip
Размер файла : 128 Кбайт

Текст
Формат : SubRip
Метод сжатия : Без потерь

Общее
Уникальный идентификатор : 214684201640814548047371137778768367475 (0xA182AC5A49D2AFD88195494262134F73)
Полное имя : D:VideoVnutrennee prostranstvo.1987.HDTVRip.720pVnutrennee prostranstvo.1987.HDTVRip.720p.mkv
Формат : Matroska
Версия формата : Version 4 / Version 2
Размер файла : 5,34 Гбайт
Продолжительность : 1 ч. 59 м.
Общий поток : 6389 Кбит/сек
Дата кодирования : UTC 2015-03-23 04:16:59
Программа кодирования : mkvmerge v7.7.0 ('Six Voices') 64bit built on Feb 28 2015 23:39:33
Библиотека кодирования : libebml v1.3.1 + libmatroska v1.4.2
DURATION : 01:59:40.512000000
NUMBER_OF_FRAMES : 224391
NUMBER_OF_BYTES : 402108672
_STATISTICS_WRITING_APP : mkvmerge v7.7.0 ('Six Voices') 64bit built on Feb 28 2015 23:39:33
_STATISTICS_WRITING_DATE_UTC : 2015-03-23 04:16:59
_STATISTICS_TAGS : BPS DURATION NUMBER_OF_FRAMES NUMBER_OF_BYTES

Видео
Идентификатор : 1
Формат : AVC
Формат/Информация : Advanced Video Codec
Профиль формата : High@L4.1
Параметр CABAC формата : Да
Параметр ReFrames формата : 9 кадров
Идентификатор кодека : V_MPEG4/ISO/AVC
Продолжительность : 1 ч. 59 м.
Битрейт : 4789 Кбит/сек
Ширина : 1280 пикселей
Высота : 720 пикселей
Соотношение сторон : 16:9
Режим частоты кадров : Постоянный
Частота кадров : 23,976 кадра/сек
Цветовое пространство : YUV
Субдискретизация насыщенности : 4:2:0
Битовая глубина : 8 бит
Тип развёртки : Прогрессивная
Бит/(Пиксели*Кадры) : 0.217
Размер потока : 4,00 Гбайт (75%)
Заголовок : HDTVRip -- STarankov
Библиотека кодирования : x264 core 142 r2431 ac76440
Настройки программы : cabac=1 / ref=9 / deblock=1:-2:-2 / analyse=0x3:0x113 / me=umh / subme=10 / psy=1 / psy_rd=1.00:0.15 / mixed_ref=1 / me_range=32 / chroma_me=1 / trellis=2 / 8x8dct=1 / cqm=0 / deadzone=21,11 / fast_pskip=1 / chroma_qp_offset=-3 / threads=6 / lookahead_threads=1 / sliced_threads=0 / nr=0 / decimate=1 / interlaced=0 / bluray_compat=0 / constrained_intra=0 / bframes=8 / b_pyramid=2 / b_adapt=2 / b_bias=0 / direct=3 / weightb=1 / open_gop=0 / weightp=2 / keyint=230 / keyint_min=23 / scenecut=40 / intra_refresh=0 / rc_lookahead=40 / rc=crf / mbtree=0 / crf=19.0 / qcomp=0.60 / qpmin=0 / qpmax=69 / qpstep=4 / vbv_maxrate=40000 / vbv_bufsize=50000 / crf_max=0.0 / nal_hrd=none / filler=0 / ip_ratio=1.40 / pb_ratio=1.30 / aq=1:1.00
Язык : English
Default : Да
Forced : Нет
DURATION : 01:59:38.672000000
NUMBER_OF_FRAMES : 172116
NUMBER_OF_BYTES : 4410918392
_STATISTICS_WRITING_APP : mkvmerge v7.7.0 ('Six Voices') 64bit built on Feb 28 2015 23:39:33
_STATISTICS_WRITING_DATE_UTC : 2015-03-23 04:16:59
_STATISTICS_TAGS : BPS DURATION NUMBER_OF_FRAMES NUMBER_OF_BYTES

Аудио #1
Идентификатор : 2
Формат : AC-3
Формат/Информация : Audio Coding 3
Расширение режима : CM (complete main)
Параметр Endianness формата : Big
Идентификатор кодека : A_AC3
Продолжительность : 1 ч. 59 м.
Вид битрейта : Постоянный
Битрейт : 192 Кбит/сек
Каналы : 2 канала
Расположение каналов : Front: L R
Частота : 48,0 КГц
Битовая глубина : 16 бит
Метод сжатия : С потерями
Размер потока : 164 Мбайт (3%)
Заголовок : DUB (Варус видео)
Язык : Russian
Default : Да
Forced : Нет

Аудио #2
Идентификатор : 3
Формат : AC-3
Формат/Информация : Audio Coding 3
Расширение режима : CM (complete main)
Параметр Endianness формата : Big
Идентификатор кодека : A_AC3
Продолжительность : 1 ч. 59 м.
Вид битрейта : Постоянный
Битрейт : 384 Кбит/сек
Каналы : 6 каналов
Расположение каналов : Front: L C R, Side: L R, LFE
Частота : 48,0 КГц
Битовая глубина : 16 бит
Метод сжатия : С потерями
Размер потока : 329 Мбайт (6%)
Заголовок : MVO (вариант 1)
Язык : Russian
Default : Нет
Forced : Нет

Аудио #3
Идентификатор : 4
Формат : AC-3
Формат/Информация : Audio Coding 3
Расширение режима : CM (complete main)
Параметр Endianness формата : Big
Идентификатор кодека : A_AC3
Продолжительность : 1 ч. 59 м.
Вид битрейта : Постоянный
Битрейт : 448 Кбит/сек
Каналы : 6 каналов
Расположение каналов : Front: L C R, Side: L R, LFE
Частота : 48,0 КГц
Битовая глубина : 16 бит
Метод сжатия : С потерями
Размер потока : 383 Мбайт (7%)
Заголовок : AVO (Леонид Володарский)
Язык : Russian
Default : Нет
Forced : Нет

Аудио #4
Идентификатор : 5
Формат : AC-3
Формат/Информация : Audio Coding 3
Расширение режима : CM (complete main)
Параметр Endianness формата : Big
Идентификатор кодека : A_AC3
Продолжительность : 1 ч. 59 м.
Вид битрейта : Постоянный
Битрейт : 448 Кбит/сек
Каналы : 6 каналов
Расположение каналов : Front: L C R, Side: L R, LFE
Частота : 48,0 КГц
Битовая глубина : 16 бит
Метод сжатия : С потерями
Размер потока : 383 Мбайт (7%)
Заголовок : AVO (Алексей Михалёв, вариант 1)
Язык : Russian
Default : Нет
Forced : Нет
pb.wtf



Скачать Внутреннее пространство через торрент http://i58.fastpic.ru/big/2015/0324/f4/01029f971fab6b82ed9192742dfa09f4.jpg Скачать фильм Внутреннее пространство через торрент бесплантно в хорошем качестве Описание: Американский пилот лейтенант Так Пендлтон принимает участие в эксперименте, в процессе которого он должен быть очень сильно ... 8.5 10 8
Info! Золотая раздача, скачанное не засчитывается.
Торрент: Зарегистрирован [2015-03-24 11:00] · скачан: 78 раз
Статус: √ проверено
Размер: 6.95 GB
Как cкачать? Как скачать Внутреннее пространство через торрент | qTorrent

% Раздел Тема Автор DL S | L
Фильмы до 2000 г. [ 5.31 GB ] Внутреннее пространство / Innerspace [1987 HDTVRip-AVC] DUB 3 x MVO 4 x AVO msltel Скачать
1 | 0

28-11-2019 20:33  

Отключить всю рекламу на сайте

24-03-2015 15:15 Внутреннее пространство Скачать торрент  

да дайте скорости! такой кин!!!!!!!!pb.wtf



24-03-2015 15:16 Внутреннее пространство Скачать торрент  

спасибо!pb.wtf



    Дорогой пользователь! Огромная просьба, поблагодарите релизера, оцените раздачу и оставьте свои комментарий, если Вы скачали Внутреннее пространство через торрент бесплатно! Внесите свою лепту в развитие PiratBit!
    Комментировать посты могут только пользователи прошедшие не сложную регистрацию
    Показать сообщения:    

    Внутреннее пространство через торрент
    Скачать бесплатно Внутреннее пространство
    Внутреннее пространство скачать торрент
    Внутреннее пространство смотреть онлайн
    Cкачать фильм Внутреннее пространство бесплатно
    Внутреннее пространство скачать торрент в хорошем качестве
    Внутреннее пространство смотреть онлайн бесплатно в хорошем качестве


    Вы не можете начинать темы
    Вы не можете отвечать на сообщения
    Вы не можете редактировать свои сообщения
    Вы не можете удалять свои сообщения
    Вы не можете голосовать в опросах
    Вы не можете прикреплять файлы к сообщениям
    Вы можете скачивать файлы