Ссылка на приватное зеркало нашего сайта всего за 1$. Внимание количество ограничено!!!

2 сезон

iTunes

1 сезон

1

iTunes

iTunes

iTunes

1 сезон

RePack

30

ИГРА 18+

pack

ВАЖНО

!!Акция!!

Alien_RageХит недели

RePack

MK11
pack

Забери бонус

RePack

jed

!!Акция!!

Alien_Rage

RePack

fifa19

RePack

Assassins Creed: Odyssey

RePack

NEED FOR SPEED™ PAYBACK

4 сезон

9 сезон

Бесстыжие 9 сезон

Все сериалы

все сериалы на PB.wtf

RePack

FAR CRY 5
  

Помни / Memento (Кристофер Нолан / Christopher Nolan) [2000, триллер, детектив, BDRip 720p, 10th Anniversary Special Edition], DUB,MVO,3xDVO,4xAVO pb.wtf

Помни через торрент pb.wtf

Размер: 8.85 GB | Добавлен: 5 лет 6 мес. назад | Торрент скачан:339 раз
Скачать  

24-03-2015 16:14 Помни Скачать торрент  

Помни / Memento
10th Anniversary Special Edition

«Некоторые воспоминания лучше забыть»


Год выпуска: 2000
Страна: США
Жанр: триллер, детектив
Продолжительность: 01:53:26
Перевод: Дублированный - [Лицензия], Профессиональный многоголосый, Профессиональный (двухголосый), Авторский (одноголосый)
Субтитры: русские (R5 West Video), русские (R5 SOYUZ Video), русские (D2Lab), русские (LDV), русские (ssgen & KillerBeer), русские (SDH), английские (Full), английские (SDH)
Режиссер: Кристофер Нолан
В ролях: Гай Пирс , Кэрри-Энн Мосс , Джо Пантольяно , Марк Бун Джуниор , Расс Фега , Джоржа Фокс , Стивен Тоболовски , Харриет Сэнсом Харрис , Томас Леннон , Каллум Кит Ренни , Кимберли Кэмпбелл , Марианн Мюллерлейл
Описание::
Леонард Шелби изысканно и дорого одет, ездит на новеньком «Ягуаре», но проживает в дешевых мотелях. Его цель в жизни - найти убийцу жены. Его проблема - редкая форма амнезии, потеря короткой памяти, помня все до убийства, он не помнит, что было пятнадцать минут назад.

R - Лицам до 17 лет обязательно присутствие взрослого
Качество: BDRip 720p
Контейнер (Расширение): MKV
Видео кодек: AVC
Аудио кодек: AC3
Видео: 1280x546 (2.35:1), 5437 Кбит/сек, 23,976 кадр/сек, 0,325 Бит/[Пиксели*Кадры]
Аудио №1: русский / AC3 / 5.1 / 48 kHz / 384 kbps / |Дублированный|
Аудио №2: русский / AC3 / 5.1 / 48 kHz / 640 kbps / |Авторский, А.Гаврилов|
Аудио №3: русский / AC3 / 5.1 / 48 kHz / 640 kbps / |Авторский, С.Кузнецов|
Аудио №4: русский / AC3 / 5.1 / 48 kHz / 640 kbps / |Авторский, Ю.Сербин|
Аудио №5: русский / AC3 / 5.1 / 48 kHz / 448 kbps / |Авторский, А.Кузнецов|
Аудио №6: русский / AC3 / 5.1 / 48 kHz / 640 kbps / |Профессиональный двухголосый закадровый, СОЮЗ Видео|
Аудио №7: русский / AC3 / 5.1 / 48 kHz / 640 kbps / |Профессиональный двухголосый закадровый, D2Lab|
Аудио №8: русский / AC3 / 5.1 / 48 kHz / 448 kbps / |Профессиональный многоголосый закадровый, LDV|
Аудио №9: украинский / AC3 / 2.0 / 48 kHz / 384 kbps / |Двухголосый закадровый, ТакТреба Продакшн|
Аудио №10: английский / AC3 / 5.1 / 48 kHz / 640 kbps /
Навигация по главам(Чаптеры): естьАвтор рипа: Сообщество:
  • Салон, в котором главному герою наносили на тело татуировки, назван «Эмма Томас». Так зовут жену Кристофера Нолана, которая является продюсером этого фильма.
  • Изначально планировалось, что песня Radiohead - «Paranoid Android» должна была зазвучать вместе с финальными титрами. Но Кристофер Нолан решил, что стоимость лицензии на использование этой композиции слишком велика для его низкобюджетного фильма.
  • Название болезни, которой поражен Леонард - антероградная амнезия: неспособность вспомнить новую информацию, усвоенную человеком после события, спровоцировавшего амнезию. В течение 50-х годов прошлого века врачи изучали некоторые формы эпилепсии и проводили ряд операций на мозге, которые вызывали точно такие же проблемы с памятью.
  • Фильм снимался в Южной Калифорнии в течение 25 дней.
  • Номер телефона Тедди, 555-01-34, такой же, как и у Марлы Зингер из «Бойцовского клуба».
  • Все снимки Леонард Шелби делает с помощью фотоаппарата «Polaroid 690».
  • Около мотеля можно заметить белую «Honda Civic», припаркованную рядом с «Jaguar» Леонарда. Это машина режиссера Кристофера Нолана.
  • Первым, кого хотел видеть Кристофер Нолан в роли Леонарда, был актер Алек Болдуин.
  • Среди вещей жены Леонарда, которые были разложены по номеру мотеля, можно заметить часы. Они были украдены героем Биллом в фильме Нолана «Преследование» (1998).
  • На оригинальной версии DVD, выпущенной ограниченным тиражом, зритель имеет возможность посмотреть фильм, в котором сцены расставлены согласно хронологическому порядку.
  • Перед съёмками сцены драки Леонарда с наркоторговцем Джимми исполнитель роли Джимми Ларри Холден попросил Гая Пирса драться по-настоящему. Пирс, бывший бодибилдер, согласился и основательно помял партнёра.
  • Сценарий Кристофера Нолана основан на рассказе «Memento Mori», который написал его брат Джонатан. Но до сих пор «Помни» считается оригинальной постановкой, а не адаптацией лишь потому, что рассказ был опубликован после релиза фильма.
  • В начальной реверсивной сцене гильза катится не из-за падения, а из-за того, что Кристофер Нолан дует на неё, поскольку снять крупный план падения гильзы на пол при статической камере оказалось слишком сложно. Для того, чтобы получить качественную картинку, создатели фильма не стали просто снимать сцену, а затем пускать её реверсивно. Они умудрились снять сцену, подавая плёнку в камеру с противоположной стороны, и при нормальном проигрывании сцена стала реверсивной. Но дубль с гильзой, имитирующий реверс, должен был быть снят нормально, и поскольку его тоже нечаянно сняли обратно идущей плёнкой, то при монтаже его пришлось пускать реверсом. Таким образом, качение гильзы - это симуляция реверсивного дубля, снятого реверсом, и затем реверсированного при монтаже, чтобы достичь изначально предполагавшегося эффекта.
  • Кристофер Нолан хотел, чтобы Питер Диминг был оператором фильма, но он был занят работой над фильмом «Крик 3» (2000).
  • Дэнис Лири отказался от роли Тэдди.
  • В одной сцене Леонард быстро проходит перед магазином книжки комиксов. На окне магазина можно заметить эмблему Бэтмена. Кристофер Нолан позже снимет фильмы «Бэтмен: Начало» (2005), «Темный рыцарь» (2008) и «Темный рыцарь: Возрождение легенды» (2012). В той же самой витрине есть также эмблема Супермена. Нолан был продюсером фильма «Человек из стали» (2013) и является исполнительным продюсером «Бэтмен против Супермена: На заре справедливости» (2016).
  • Перед тем как Кэрри-Энн Мосс получила роль Натали, Эшли Джадд, Фамке Янссен и Анджелина Джоли рассматривались на эту роль.
  • Аарон Экхарт, Брэд Питт, Чарли Шин и Томас Джейн рассматривались на роль Леонарда прежде, чем ее получил Гай Пирс.
  • По словам Кристофера Нолана, все съемки с участием Кэрри-Энн Мосс в фильме были сняты за 8 дней.
  • Во время съемок сцены, где Тедди произносит: «Откуда ты можешь знать, урод!» (You don`t have a clue, you freak!), режиссеру Кристоферу Нолану не понравилось, как Джо Пантольано, который играл Тедди, произнес концовку этой фразы. В итоге Нолан последние слова озвучил самостоятельно.
  • В сцене, где Леонард рассказывает про то, как Сэмми поместили в психиатрическую лечебницу, показан момент, где Сэмми сидит за столом в больнице, и на долю секунды он сменяется самим Леонардом.

  • Герой ошибочно утверждает, что не имеет кратковременной памяти, тогда как на самом деле не может создавать долговременную.
  • Код:

    Format                                   : Matroska
    Format version                           : Version 2
    File size                                : 8.85 GiB
    Duration                                 : 1h 53mn
    Overall bit rate                         : 11.2 Mbps
    Movie name                               : Pomni.(2000).BDRip.720p.10th Anniversary Special Edition.[denis100]
    Encoded date                             : UTC 2015-03-24 15:45:00
    Writing application                      : mkvmerge v5.8.0 ('No Sleep / Pillow') built on Sep  2 2012 15:37:04
    Writing library                          : libebml v1.2.3 + libmatroska v1.3.0

    Video
    ID                                       : 1
    Format                                   : AVC
    Format/Info                              : Advanced Video Codec
    Format profile                           : High@L4.1
    Format settings, CABAC                   : Yes
    Format settings, ReFrames                : 11 frames
    Codec ID                                 : V_MPEG4/ISO/AVC
    Duration                                 : 1h 53mn
    Bit rate                                 : 5 438 Kbps
    Width                                    : 1 280 pixels
    Height                                   : 546 pixels
    Display aspect ratio                     : 2.35:1
    Frame rate                               : 23.976 fps
    Color space                              : YUV
    Chroma subsampling                       : 4:2:0
    Bit depth                                : 8 bits
    Scan type                                : Progressive
    Bits/(Pixel*Frame)                       : 0.325
    Stream size                              : 4.31 GiB (49%)
    Title                                    : Pomni.(2000).BDRip.720p.10th Anniversary Special Edition.[denis100]
    Writing library                          : x264 core 146 r2538 121396c
    Encoding settings                        : cabac=1 / ref=11 / deblock=1:-3:-3 / analyse=0x3:0x133 / me=umh / subme=11 / psy=1 / psy_rd=1.00:0.00 / mixed_ref=1 / me_range=64 / chroma_me=1 / trellis=2 / 8x8dct=1 / cqm=0 / deadzone=21,11 / fast_pskip=0 / chroma_qp_offset=-2 / threads=6 / lookahead_threads=1 / sliced_threads=0 / nr=0 / decimate=1 / interlaced=0 / bluray_compat=0 / constrained_intra=0 / bframes=10 / b_pyramid=2 / b_adapt=2 / b_bias=0 / direct=3 / weightb=1 / open_gop=0 / weightp=2 / keyint=240 / keyint_min=23 / scenecut=40 / intra_refresh=0 / rc=crf / mbtree=0 / crf=17.5 / qcomp=0.60 / qpmin=0 / qpmax=69 / qpstep=4 / ip_ratio=1.40 / pb_ratio=1.30 / aq=1:1.00
    Language                                 : English
    Default                                  : Yes
    Forced                                   : No

    Audio #1
    ID                                       : 2
    Format                                   : AC-3
    Format/Info                              : Audio Coding 3
    Mode extension                           : CM (complete main)
    Codec ID                                 : A_AC3
    Duration                                 : 1h 53mn
    Bit rate mode                            : Constant
    Bit rate                                 : 384 Kbps
    Channel(s)                               : 6 channels
    Channel positions                        : Front: L C R, Side: L R, LFE
    Sampling rate                            : 48.0 KHz
    Bit depth                                : 16 bits
    Compression mode                         : Lossy
    Stream size                              : 312 MiB (3%)
    Title                                    : Дублированный, «Мосфильм»
    Language                                 : Russian
    Default                                  : Yes
    Forced                                   : No

    Audio #2
    ID                                       : 3
    Format                                   : AC-3
    Format/Info                              : Audio Coding 3
    Mode extension                           : CM (complete main)
    Codec ID                                 : A_AC3
    Duration                                 : 1h 53mn
    Bit rate mode                            : Constant
    Bit rate                                 : 640 Kbps
    Channel(s)                               : 6 channels
    Channel positions                        : Front: L C R, Side: L R, LFE
    Sampling rate                            : 48.0 KHz
    Bit depth                                : 16 bits
    Compression mode                         : Lossy
    Stream size                              : 519 MiB (6%)
    Title                                    : Авторский, А.Гаврилов
    Language                                 : Russian
    Default                                  : No
    Forced                                   : No

    Audio #3
    ID                                       : 4
    Format                                   : AC-3
    Format/Info                              : Audio Coding 3
    Mode extension                           : CM (complete main)
    Codec ID                                 : A_AC3
    Duration                                 : 1h 53mn
    Bit rate mode                            : Constant
    Bit rate                                 : 640 Kbps
    Channel(s)                               : 6 channels
    Channel positions                        : Front: L C R, Side: L R, LFE
    Sampling rate                            : 48.0 KHz
    Bit depth                                : 16 bits
    Compression mode                         : Lossy
    Stream size                              : 519 MiB (6%)
    Title                                    : Авторский, С.Кузнецов
    Language                                 : Russian
    Default                                  : No
    Forced                                   : No

    Audio #4
    ID                                       : 5
    Format                                   : AC-3
    Format/Info                              : Audio Coding 3
    Mode extension                           : CM (complete main)
    Codec ID                                 : A_AC3
    Duration                                 : 1h 53mn
    Bit rate mode                            : Constant
    Bit rate                                 : 640 Kbps
    Channel(s)                               : 6 channels
    Channel positions                        : Front: L C R, Side: L R, LFE
    Sampling rate                            : 48.0 KHz
    Bit depth                                : 16 bits
    Compression mode                         : Lossy
    Stream size                              : 519 MiB (6%)
    Title                                    : Авторский, Ю.Сербин
    Language                                 : Russian
    Default                                  : No
    Forced                                   : No

    Audio #5
    ID                                       : 6
    Format                                   : AC-3
    Format/Info                              : Audio Coding 3
    Mode extension                           : CM (complete main)
    Codec ID                                 : A_AC3
    Duration                                 : 1h 53mn
    Bit rate mode                            : Constant
    Bit rate                                 : 448 Kbps
    Channel(s)                               : 6 channels
    Channel positions                        : Front: L C R, Side: L R, LFE
    Sampling rate                            : 48.0 KHz
    Bit depth                                : 16 bits
    Compression mode                         : Lossy
    Stream size                              : 364 MiB (4%)
    Title                                    : Авторский, А.Кузнецов
    Language                                 : Russian
    Default                                  : No
    Forced                                   : No

    Audio #6
    ID                                       : 7
    Format                                   : AC-3
    Format/Info                              : Audio Coding 3
    Mode extension                           : CM (complete main)
    Codec ID                                 : A_AC3
    Duration                                 : 1h 53mn
    Bit rate mode                            : Constant
    Bit rate                                 : 640 Kbps
    Channel(s)                               : 6 channels
    Channel positions                        : Front: L C R, Side: L R, LFE
    Sampling rate                            : 48.0 KHz
    Bit depth                                : 16 bits
    Compression mode                         : Lossy
    Stream size                              : 519 MiB (6%)
    Title                                    : Профессиональный двухголосый закадровый, СОЮЗ Видео
    Language                                 : Russian
    Default                                  : No
    Forced                                   : No

    Audio #7
    ID                                       : 8
    Format                                   : AC-3
    Format/Info                              : Audio Coding 3
    Mode extension                           : CM (complete main)
    Codec ID                                 : A_AC3
    Duration                                 : 1h 53mn
    Bit rate mode                            : Constant
    Bit rate                                 : 640 Kbps
    Channel(s)                               : 6 channels
    Channel positions                        : Front: L C R, Side: L R, LFE
    Sampling rate                            : 48.0 KHz
    Bit depth                                : 16 bits
    Compression mode                         : Lossy
    Stream size                              : 519 MiB (6%)
    Title                                    : Профессиональный двухголосый закадровый, D2Lab
    Language                                 : Russian
    Default                                  : No
    Forced                                   : No

    Audio #8
    ID                                       : 9
    Format                                   : AC-3
    Format/Info                              : Audio Coding 3
    Mode extension                           : CM (complete main)
    Codec ID                                 : A_AC3
    Duration                                 : 1h 53mn
    Bit rate mode                            : Constant
    Bit rate                                 : 448 Kbps
    Channel(s)                               : 6 channels
    Channel positions                        : Front: L C R, Side: L R, LFE
    Sampling rate                            : 48.0 KHz
    Bit depth                                : 16 bits
    Compression mode                         : Lossy
    Stream size                              : 364 MiB (4%)
    Title                                    : Профессиональный многоголосый закадровый, LDV
    Language                                 : Russian
    Default                                  : No
    Forced                                   : No

    Audio #9
    ID                                       : 10
    Format                                   : AC-3
    Format/Info                              : Audio Coding 3
    Mode extension                           : CM (complete main)
    Codec ID                                 : A_AC3
    Duration                                 : 1h 53mn
    Bit rate mode                            : Constant
    Bit rate                                 : 384 Kbps
    Channel(s)                               : 2 channels
    Channel positions                        : Front: L R
    Sampling rate                            : 48.0 KHz
    Bit depth                                : 16 bits
    Compression mode                         : Lossy
    Stream size                              : 312 MiB (3%)
    Title                                    : Двухголосый закадровый, ТакТреба Продакшн
    Language                                 : Ukrainian
    Default                                  : No
    Forced                                   : No

    Audio #10
    ID                                       : 11
    Format                                   : AC-3
    Format/Info                              : Audio Coding 3
    Mode extension                           : CM (complete main)
    Codec ID                                 : A_AC3
    Duration                                 : 1h 53mn
    Bit rate mode                            : Constant
    Bit rate                                 : 640 Kbps
    Channel(s)                               : 6 channels
    Channel positions                        : Front: L C R, Side: L R, LFE
    Sampling rate                            : 48.0 KHz
    Bit depth                                : 16 bits
    Compression mode                         : Lossy
    Stream size                              : 519 MiB (6%)
    Language                                 : English
    Default                                  : No
    Forced                                   : No

    Text #1
    ID                                       : 12
    Format                                   : UTF-8
    Codec ID                                 : S_TEXT/UTF8
    Codec ID/Info                            : UTF-8 Plain Text
    Title                                    : R5 West Video
    Language                                 : Russian
    Default                                  : No
    Forced                                   : No

    Text #2
    ID                                       : 13
    Format                                   : UTF-8
    Codec ID                                 : S_TEXT/UTF8
    Codec ID/Info                            : UTF-8 Plain Text
    Title                                    : R5 SOYUZ Video
    Language                                 : Russian
    Default                                  : No
    Forced                                   : No

    Text #3
    ID                                       : 14
    Format                                   : UTF-8
    Codec ID                                 : S_TEXT/UTF8
    Codec ID/Info                            : UTF-8 Plain Text
    Title                                    : D2Lab
    Language                                 : Russian
    Default                                  : No
    Forced                                   : No

    Text #4
    ID                                       : 15
    Format                                   : UTF-8
    Codec ID                                 : S_TEXT/UTF8
    Codec ID/Info                            : UTF-8 Plain Text
    Title                                    : LDV
    Language                                 : Russian
    Default                                  : No
    Forced                                   : No

    Text #5
    ID                                       : 16
    Format                                   : UTF-8
    Codec ID                                 : S_TEXT/UTF8
    Codec ID/Info                            : UTF-8 Plain Text
    Title                                    : ssgen & KillerBeer
    Language                                 : Russian
    Default                                  : No
    Forced                                   : No

    Text #6
    ID                                       : 17
    Format                                   : UTF-8
    Codec ID                                 : S_TEXT/UTF8
    Codec ID/Info                            : UTF-8 Plain Text
    Title                                    : SDH
    Language                                 : Russian
    Default                                  : No
    Forced                                   : No

    Text #7
    ID                                       : 18
    Format                                   : UTF-8
    Codec ID                                 : S_TEXT/UTF8
    Codec ID/Info                            : UTF-8 Plain Text
    Title                                    : Full
    Language                                 : English
    Default                                  : No
    Forced                                   : No

    Text #8
    ID                                       : 19
    Format                                   : UTF-8
    Codec ID                                 : S_TEXT/UTF8
    Codec ID/Info                            : UTF-8 Plain Text
    Title                                    : SDH
    Language                                 : English
    Default                                  : No
    Forced                                   : No

    Menu
    00:00:00.000                             : en:Chapter 01
    00:06:25.802                             : en:Chapter 02
    00:11:06.457                             : en:Chapter 03
    00:16:13.097                             : en:Chapter 04
    00:22:17.836                             : en:Chapter 05
    00:28:30.583                             : en:Chapter 06
    00:39:26.822                             : en:Chapter 07
    00:48:56.767                             : en:Chapter 08
    01:02:41.674                             : en:Chapter 09
    01:09:57.318                             : en:Chapter 10
    01:17:18.133                             : en:Chapter 11
    01:21:44.274                             : en:Chapter 12
    01:26:33.354                             : en:Chapter 13
    01:33:58.966                             : en:Chapter 14
    01:40:48.667                             : en:Chapter 15
    01:49:18.552                             : en:Chapter 16
    01:53:26.382                             : en:Chapter 17

    x264 [info]: frame I:1437 Avg QP:15.49 size: 97996
    x264 [info]: frame P:32180 Avg QP:16.57 size: 49529
    x264 [info]: frame B:129578 Avg QP:18.94 size: 23743
    pb.wtf



    Скачать Помни через торрент http://i66.fastpic.ru/big/2015/0324/f8/b7709625be160545b3992ada550d9ff8.png Скачать фильм Помни через торрент бесплантно в хорошем качестве Описание::Леонард Шелби изысканно и дорого одет, ездит на новеньком «Ягуаре», но проживает в дешевых мотелях. Его цель в жизни - найти ... 10 10 10
    Info! Золотая раздача, скачанное не засчитывается.
    Торрент: Зарегистрирован [2015-03-24 16:14] · скачан: 339 раз
    Статус: √ проверено
    Размер: 8.85 GB
    Как cкачать? Как скачать Помни через торрент | qTorrent

    28-11-2019 20:33  

    Отключить всю рекламу на сайте

    24-03-2015 20:30 Помни Скачать торрент  

    шикарный фильм. хочу его посмотреть в обратном порядке (есть такая версия)pb.wtf



    25-03-2015 17:03 Помни Скачать торрент  

    скорости народ !pb.wtf



      Дорогой пользователь! Огромная просьба, поблагодарите релизера, оцените раздачу и оставьте свои комментарий, если Вы скачали Помни через торрент бесплатно! Внесите свою лепту в развитие PiratBit!
      Комментировать посты могут только пользователи прошедшие не сложную регистрацию
      Показать сообщения:    

      Помни через торрент
      Скачать бесплатно Помни
      Помни скачать торрент
      Помни смотреть онлайн
      Cкачать фильм Помни бесплатно
      Помни скачать торрент в хорошем качестве
      Помни смотреть онлайн бесплатно в хорошем качестве


      Вы не можете начинать темы
      Вы не можете отвечать на сообщения
      Вы не можете редактировать свои сообщения
      Вы не можете удалять свои сообщения
      Вы не можете голосовать в опросах
      Вы не можете прикреплять файлы к сообщениям
      Вы можете скачивать файлы