2 сезон

iTunes

MVO

1

2 сезон

iTunes

iTunes

1 сезон

RePack

30

Ultimate

ВАЖНО

ИГРА 18+

pack

RePack

MK11
pack

Легкие деньги

RePack

jed

RePack

fifa19

RePack

RDR2

RePack

NEED FOR SPEED™ PAYBACK

4 сезон

9 сезон

Бесстыжие 9 сезон

Все сериалы

все сериалы на PB.wtf

RePack

FAR CRY 5

Anonymous, доброй ночи, мы не успеваем собрать деньги на оплату серверов за декабрь и январь, помогите нам пожалуйста в это трудное время. В качестве благодарности мы отключим Вам всю рекламу на сайте (укажите свой ник в строку Ваше имя)!

×
  
Magnet ссылка

Добро пожаловать в капкан / Welcome to the Punch (Эрен Криви) [2013 г., боевик, триллер, криминал, HDRip, Дубляж "Лицензия"] pb.wtf

Добро пожаловать в капкан через торрент pb.wtf

Размер: 2.07 GB | Добавлен: 5 лет 9 мес. назад | Торрент скачан:668 раз
Скачать  

24-03-2015 18:07 Добро пожаловать в капкан Скачать торрент  

Добро пожаловать в капкан / Welcome to the Punch
Год выпуска: 2013
Страна: Великобритания, США / Worldview Entertainment, Between The Eyes, Automatik Entertainment
Жанр: боевик, триллер, криминал
Продолжительность: 01:39:38
Перевод: Дубляж (Лицензия)

Режиссер: Эрен Криви

IMDB 6.10 (21 368)


В ролях: Джеймс МакЭвой, Марк Стронг, Андреа Райзборо, Джонни Харрис, Дэниэл Мейс, Дэвид Моррисси, Питер Муллан, Наташа Литтл, Дэниэл Калуя, Рут Шин, Сергей Смирнов, Василий Дахненко, Рамиля Искандер, Александр Головчанский, Александр Гаврилин

Описание: Бывший преступник Джейкоб Стернбуд вынужден вернуться в Лондон из своего убежища, когда его сын вовлечен в ограбление, пошедшее не так. У детектива Макса Левински появляется шанс поймать человека, которому всегда удавалось уйти. Соперники снова меряются силами, но они сталкиваются с более глубоким преступным заговором, с которым вынуждены бороться, чтобы выжить.

Качество: HDRip
Формат: AVI
Видео кодек: XviD
Аудио кодек: AC3
Видео: 720x304 (2.37:1), 23.976 fps, XviD build 50 ~2523 kbps avg, 0.48 bit/pixel
Аудио: 48 kHz, AC3 Dolby Digital, 3/2 (L,C,R,l,r) + LFE ch, ~448 kbps


Общее
Полное имя : F:\кино\Добро пожаловать в капкан.2013.HDRip.avi
Формат : AVI
Формат/Информация : Audio Video Interleave
Профиль формата : OpenDML
Размер файла : 2,07 Гбайт
Продолжительность : 1 ч. 39 м.
Общий поток : 2978 Кбит/сек
Программа кодирования : VirtualDubMod 1.5.10.3 | www.virtualdub-fr.org || (build 2550/release)
Библиотека кодирования : VirtualDubMod build 2550/release

Видео
Идентификатор : 0
Формат : MPEG-4 Visual
Профиль формата : Advanced Simple@L5
Параметр BVOP формата : 2
Параметр QPel формата : Нет
Параметр GMC формата : Без точки перехода
Параметр матрицы формата : Default (H.263)
Идентификатор кодека : XVID
Идентификатор кодека/Подсказка : XviD
Продолжительность : 1 ч. 39 м.
Битрейт : 2518 Кбит/сек
Ширина : 720 пикселей
Высота : 304 пикселя
Соотношение сторон : 2,35:1
Частота кадров : 23,976 кадра/сек
Цветовое пространство : YUV
Субдискретизация насыщенности : 4:2:0
Битовая глубина : 8 бит
Тип развёртки : Прогрессивная
Метод сжатия : С потерями
Бит/(Пиксели*Кадры) : 0.480
Размер потока : 1,75 Гбайт (85%)
Библиотека кодирования : XviD 1.2.1 (UTC 2008-12-04)

Аудио
Идентификатор : 1
Формат : AC-3
Формат/Информация : Audio Coding 3
Расширение режима : CM (complete main)
Параметр Endianness формата : Big
Идентификатор кодека : 2000
Продолжительность : 1 ч. 39 м.
Вид битрейта : Постоянный
Битрейт : 448 Кбит/сек
Каналы : 6 каналов
Расположение каналов : Front: L C R, Side: L R, LFE
Частота : 48,0 КГц
Битовая глубина : 16 бит
Метод сжатия : С потерями
Размер потока : 319 Мбайт (15%)
Выравнивание : Разделение по промежуткам
Продолжительность промежутка : 42 мс. (1,00 видеокадр)
Время предзагрузки промежутка : 500 мс.

pb.wtf
!Ворон писал(а):

https://pb.wtf/topic/58128/
*Запрещено раздавать видеофайлы в контейнере avi с битрейтом видео свыше 2500 Кбит/с.



Скачать Добро пожаловать в капкан через торрент http://pic1.kartinco.top/images/10/oejqw.jpg Скачать фильм Добро пожаловать в капкан через торрент бесплантно в хорошем качестве Описание: Бывший преступник Джейкоб Стернбуд вынужден вернуться в Лондон из своего убежища, когда его сын вовлечен в ограбление, пошедшее ... 9.1 10 25
Торрент: Зарегистрирован [2015-03-24 18:07] · скачан: 668 раз
Статус: # сомнительно
Размер: 2.07 GB
Как cкачать? Как скачать Добро пожаловать в капкан через торрент | UTorrent

% Раздел Тема Автор DL S | L
Фильмы [HD 720p, 1080p] (Хороший звук DUB, MVO) [ 9.84 GB ] Добро пожаловать в капкан / Welcome to the Punch [2013 BDRip 1080p [] Ворон Скачать
1 | 0
Фильмы [HD 720p, 1080p] (Хороший звук DUB, MVO) [ 11.03 GB ] Добро пожаловать в капкан / Welcome to the Punch [2013 BDRip 1080p Дублированное [] Ворон Скачать
1 | 0
Фильмы 2012 [ 2.23 GB ] Добро пожаловать в капкан / Welcome to the Punch [2013 BDRip-AVC] Dub potroks Скачать
1 | 0
Фильмы [HD 720p, 1080p] (Хороший звук DUB, MVO) [ 5.76 GB ] Добро пожаловать в капкан / Welcome to the Punch [2013 BDRip 720p [] Ворон Скачать
1 | 0
Фильмы 2013 [DVDrip, WEB-DLRip, HDrip] [ 2.19 GB ] Добро пожаловать в капкан / Welcome to the Punch [2012 HDRip [ ]+AVO+VO Ворон Скачать
1 | 0
Фильмы 2013 [DVDrip, WEB-DLRip, HDrip] [ 1.36 GB ] Добро пожаловать в капкан / Welcome to the Punch [2013 HDRip] DUB diletant Скачать
1 | 0
Фильмы с авторской озвучкой [ 1.46 GB ] Добро пожаловать в капкан / Welcome to the Punch [2013 HDRip] [AVO] killermax2013 Скачать
1 | 0

28-11-2019 20:33  

Отключить всю рекламу на сайте

    Дорогой пользователь! Огромная просьба, поблагодарите релизера, оцените раздачу и оставьте свои комментарий, если Вы скачали Добро пожаловать в капкан через торрент бесплатно! Внесите свою лепту в развитие PiratBit!
    Комментировать посты могут только пользователи прошедшие не сложную регистрацию
    Показать сообщения:    

    Добро пожаловать в капкан через торрент
    Скачать бесплатно Добро пожаловать в капкан
    Добро пожаловать в капкан скачать торрент
    Добро пожаловать в капкан смотреть онлайн
    Cкачать фильм Добро пожаловать в капкан бесплатно
    Добро пожаловать в капкан скачать торрент в хорошем качестве
    Добро пожаловать в капкан смотреть онлайн бесплатно в хорошем качестве


    Вы не можете начинать темы
    Вы не можете отвечать на сообщения
    Вы не можете редактировать свои сообщения
    Вы не можете удалять свои сообщения
    Вы не можете голосовать в опросах
    Вы не можете прикреплять файлы к сообщениям
    Вы можете скачивать файлы