2 сезон

iTunes

MVO

1

2 сезон

iTunes

iTunes

1 сезон

RePack

30

Ultimate

ВАЖНО

ИГРА 18+

pack

RePack

MK11
pack

Легкие деньги

RePack

jed

RePack

fifa19

RePack

RDR2

RePack

NEED FOR SPEED™ PAYBACK

4 сезон

9 сезон

Бесстыжие 9 сезон

Все сериалы

все сериалы на PB.wtf

RePack

FAR CRY 5

Anonymous, доброе утро, мы не успеваем собрать деньги на оплату серверов за декабрь и январь, помогите нам пожалуйста в это трудное время. В качестве благодарности мы отключим Вам всю рекламу на сайте (укажите свой ник в строку Ваше имя)!

×
  
Magnet ссылка

Грызущий ногти / Nailbiter (Патрик Ри ) [2013, ужасы, HDRip, Профессиональный (многоголосый)(КиноПремиум HD) pb.wtf

Грызущий ногти через торрент pb.wtf

Размер: 1.38 GB | Добавлен: 5 лет 9 мес. назад | Торрент скачан:339 раз
Скачать  

25-03-2015 02:46 Грызущий ногти Скачать торрент  


Грызущий ногти / Nailbiter
«Fear will surface»

ИНФОРМАЦИЯ:
Год выпуска:2013
Страна: США
Жанр: ужасы
Продолжительность: 01:21:33
Перевод: Профессиональный (многоголосый)(КиноПремиум HD)
Режиссер: Патрик Ри

В Ролях:


Джойси Эппелл (Mrs. Shurman), Джон Д. Барнс (Townsperson), Эмили Борсоу (Alice Maguire), Джейсон Коффман (Creature), Том Сонрой (Bartender), Анита Корделл (Traveler at airport), Мишель Дэвидсон (Dina), Йен Демпси (Sean), Бен Джеффри (Deputy Carr), Аарон Лоэ (Lt. Maguire), Аллен Лоуман (Tom), Зейн Мартин (Little monster)

ОПИСАНИЕ:
В центре повествования семья Магуров, состоящая из матери алкоголички Жанет и ее трех дочерей, которые следуют в аэропорт за отцом семейства, прибывшем из-за границы. Ухудшившаяся погода и грозящий торнадо заставляют их укрыться в подземном убежище. Вскоре они обнаруживают, что там еще кто-то есть...

  • Мировая премьера:25 января 2013

    ТЕХ.ДАННЫЕ:
    Качество: HDRip
    Формат: AVI
    Видео кодек: XviD
    Аудио кодек: AC3
    Видео: XviD, 720x304 (2.35:1), 1633 kbps, 23,976 fps, 0,294 bpp
    Аудио №1: AC3 / 2.0 / 48 kHz / 384 kbps / Russian
    Аудио №2: AC3 / 5.1 / 48 kHz / 384 kbps / English



    Код:

    General
    Complete name                            : D:\Торенты\Gruzyshie.nogti.2013.P.HDRip.1400Mb.avi
    Format                                   : AVI
    Format/Info                              : Audio Video Interleave
    File size                                : 1.38 GiB
    Duration                                 : 1h 21mn
    Overall bit rate                         : 2 416 Kbps
    Writing application                      : VirtualDubMod 1.5.10.2 (build 2540/release)
    Writing library                          : VirtualDubMod build 2540/release

    Video
    ID                                       : 0
    Format                                   : MPEG-4 Visual
    Format profile                           : Advanced Simple@L5
    Format settings, BVOP                    : 2
    Format settings, QPel                    : No
    Format settings, GMC                     : No warppoints
    Format settings, Matrix                  : Default (H.263)
    Codec ID                                 : XVID
    Codec ID/Hint                            : XviD
    Duration                                 : 1h 21mn
    Bit rate                                 : 1633 Kbps
    Width                                    : 720 pixels
    Height                                   : 304 pixels
    Display aspect ratio                     : 2.35:1
    Frame rate                               : 23.976 fps
    Color space                              : YUV
    Chroma subsampling                       : 4:2:0
    Bit depth                                : 8 bits
    Scan type                                : Progressive
    Compression mode                         : Lossy
    Bits/(Pixel*Frame)                       : 0.294
    Stream size                              : 899 MiB (64%)
    Writing library                          : XviD 1.2.1 (UTC 2008-12-04)

    Audio #1
    ID                                       : 1
    Format                                   : AC-3
    Format/Info                              : Audio Coding 3
    Mode extension                           : CM (complete main)
    Codec ID                                 : 2000
    Duration                                 : 1h 21mn
    Bit rate mode                            : Constant
    Bit rate                                 : 384 Kbps
    Channel(s)                               : 2 channels
    Channel positions                        : Front: L R
    Sampling rate                            : 48.0 KHz
    Bit depth                                : 16 bits
    Compression mode                         : Lossy
    Stream size                              : 224 MiB (16%)
    Alignment                                : Split accross interleaves

    Audio #2
    ID                                       : 2
    Format                                   : AC-3
    Format/Info                              : Audio Coding 3
    Mode extension                           : CM (complete main)
    Codec ID                                 : 2000
    Duration                                 : 1h 21mn
    Bit rate mode                            : Constant
    Bit rate                                 : 384 Kbps
    Channel(s)                               : 6 channels
    Channel positions                        : Front: L C R, Side: L R, LFE
    Sampling rate                            : 48.0 KHz
    Bit depth                                : 16 bits
    Compression mode                         : Lossy
    Stream size                              : 224 MiB (16%)
    Alignment                                : Split accross interleaves

    Скриншоты:


    © Оформление by Ворон
    pb.wtf



  • Скачать Грызущий ногти через торрент http://pic.kartinco.top/images/6/ordi9.jpg Скачать фильм Грызущий ногти через торрент бесплантно в хорошем качестве Е:В центре повествования семья Магуров, состоящая из матери алкоголички Жанет и ее трех дочерей, которые следуют в аэропорт за отцом ... 7.4 10 20
    Торрент: Зарегистрирован [2015-03-25 02:46] · скачан: 339 раз
    Статус: √ проверено
    Размер: 1.38 GB
    Как cкачать? Как скачать Грызущий ногти через торрент | UTorrent

    % Раздел Тема Автор DL S | L
    Фильмы 2013 [DVDrip, WEB-DLRip, HDrip] [ 1.33 GB ] Грызущий ногти / Nailbiter [2013 WEB-DLRip многоголосый "КиноПремиум HD"] coc900 Скачать
    1 | 0

    28-11-2019 20:33  

    Отключить всю рекламу на сайте

    25-03-2015 08:56 Грызущий ногти Скачать торрент  

    Скачан 26 разхоть бы 1 отзыв оставил кто. :paratrooper:pb.wtf



    25-03-2015 09:27 Грызущий ногти Скачать торрент  

    ну да...интересно же...pb.wtf



    25-03-2015 12:40 Грызущий ногти Скачать торрент  

    Ещё бы назвали: "Сосущий ноги" или "Лижущий жопу" куда мир катиться?pb.wtf



    25-03-2015 13:37 Грызущий ногти Скачать торрент  

    не..ну название вообще жесть)))pb.wtf



    25-03-2015 16:58 Грызущий ногти Скачать торрент  

    КАК фильм народ ?pb.wtf



    25-03-2015 17:14 Грызущий ногти Скачать торрент  

    fanta86 писал(а):

    КАК фильм народ ?

    Это лучшее что я видел в современном кинематографе. Поклонники жанра, приятного просмотраpb.wtf



    25-03-2015 22:43 Грызущий ногти Скачать торрент  

    "Сосущий палец"pb.wtf



    26-03-2015 05:16 Грызущий ногти Скачать торрент  

    А я бы назвал "Ковыряющийся в носу"pb.wtf



    26-03-2015 11:53 Грызущий ногти Скачать торрент  

    Фильм смотреть не стоит! Трешак с элементами "ужаса". Короче 0-10. Финал - типа-продолжение следует.... Бред, а не фильм.pb.wtf



    27-03-2015 10:13 Грызущий ногти Скачать торрент  

    уйняpb.wtf



    27-03-2015 18:20 Грызущий ногти Скачать торрент  

    Интересно ав свои грызет или чужиеpb.wtf



    27-03-2015 19:34 Грызущий ногти Скачать торрент  

    Фильм дерьмоpb.wtf



      Дорогой пользователь! Огромная просьба, поблагодарите релизера, оцените раздачу и оставьте свои комментарий, если Вы скачали Грызущий ногти через торрент бесплатно! Внесите свою лепту в развитие PiratBit!
      Комментировать посты могут только пользователи прошедшие не сложную регистрацию
      Показать сообщения:    

      Грызущий ногти через торрент
      Скачать бесплатно Грызущий ногти
      Грызущий ногти скачать торрент
      Грызущий ногти смотреть онлайн
      Cкачать фильм Грызущий ногти бесплатно
      Грызущий ногти скачать торрент в хорошем качестве
      Грызущий ногти смотреть онлайн бесплатно в хорошем качестве


      Вы не можете начинать темы
      Вы не можете отвечать на сообщения
      Вы не можете редактировать свои сообщения
      Вы не можете удалять свои сообщения
      Вы не можете голосовать в опросах
      Вы не можете прикреплять файлы к сообщениям
      Вы можете скачивать файлы