Ссылка на приватное зеркало нашего сайта всего за 1$. Внимание количество ограничено!!!

2 сезон

iTunes

1 сезон

1

iTunes

iTunes

iTunes

1 сезон

RePack

30

ИГРА 18+

pack

ВАЖНО

!!Акция!!

Alien_RageХит недели

RePack

MK11
pack

Забери бонус

RePack

jed

!!Акция!!

Alien_Rage

RePack

fifa19

RePack

Assassins Creed: Odyssey

RePack

NEED FOR SPEED™ PAYBACK

4 сезон

9 сезон

Бесстыжие 9 сезон

Все сериалы

все сериалы на PB.wtf

RePack

FAR CRY 5
  

Париж! Париж! / Faubourg 36 (Кристоф Барратье) [2008, мюзикл, драма, мелодрама, музыка, BDRip 720p] MVO pb.wtf

Париж! Париж! через торрент pb.wtf

Размер: 3.91 GB | Добавлен: 5 лет 7 мес. назад | Торрент скачан:38 раз
Скачать  

25-03-2015 11:17 Париж! Париж! Скачать торрент  

Париж! Париж! / Faubourg 36

Год выпуска: 2008
Страна: Франция, Германия, Чехия
Жанр: мюзикл, драма, мелодрама, музыка
Продолжительность: 02:00:06
Перевод: профессиональный многоголосый
Субтитры: русские

Режиссёр: Кристоф Барратье

В ролях: Жерар Жюньо, Кловис Корнийяк, Кад Мерад, Нора Арнезедер, Пьер Ришар, Бернар–Пьер Доннадьё, Максанс Перрен, Франсуа Морель, Элизабет Витали, Кристоф Курочкин, Эрик Наггар, Эрик Пра, Жульен Корби, Филипп дю Жанеран, Марк Китти, Кристиан Буйетт, Тьерри Ненец, Фридерик Папалиа, Стефан Дебак, Жан Лекот, Даниэль Бенуа, Вильфред Бенаиш, Рейнхардт Вагнер

Описание: Париж 1936-го года. Трое безработных артистов решают силой вернуть себе концертный зал «Шансония», где они когда-то выступали. Но публику, встревоженную предвоенным кризисом, уже не вдохновляют избитые шутки и заезженные номера. И тогда труппа артистов идёт на неожиданный шаг и дарит шанс юной красавице Милашке спеть на сцене «Шансонии» её любимую песню «Париж! Париж!»...



Качество: BDRip 720p Сравнение с исходником
Формат: MKV
Видео кодек: H.264
Аудио кодек: AC3
Видео: 3670 Кбит/с, 1280x536, 24 кадра/с, 0.223 bpp
Аудио 1: русский, AC3, 448 kbps, 6 ch, 48 kHz [профессиональный многоголосый, студия "Пифагор"]
Аудио 2: французский, AC3, 448 kbps, 6 ch, 48 kHz [оригинал]
Оскар, 2010 год
Номинации (1):
Лучшая песня — «Loin de Paname»

Сезар, 2009 год
Номинации (5):
Лучшая работа оператора
Лучшие костюмы
Лучший звук
Лучший саундтрек
Лучшие декорации
frame I:1598 Avg QP:15.93 size:100199
frame P:36343 Avg QP:17.17 size: 40437
frame B:135026 Avg QP:19.95 size: 13021

Общее
Уникальный идентификатор : 254953458574107759018396788111107245841 (0xBFCE4001EB836BFEA7354A0B1A0D4711)
Полное имя : D:VideoParig! Parig!.2008.BDRip.720p.mkv
Формат : Matroska
Версия формата : Version 4 / Version 2
Размер файла : 3,91 Гбайт
Продолжительность : 2 ч. 0 м.
Общий поток : 4659 Кбит/сек
Дата кодирования : UTC 2015-03-25 03:39:08
Программа кодирования : mkvmerge v7.7.0 ('Six Voices') 64bit built on Feb 28 2015 23:39:33
Библиотека кодирования : libebml v1.3.1 + libmatroska v1.4.2
_STATISTICS_WRITING_APP : mkvmerge v7.7.0 ('Six Voices') 64bit built on Feb 28 2015 23:39:33
_STATISTICS_WRITING_DATE_UTC : 2015-03-25 03:39:08
_STATISTICS_TAGS : BPS DURATION NUMBER_OF_FRAMES NUMBER_OF_BYTES
DURATION : 01:53:17.082000000
NUMBER_OF_FRAMES : 1673
NUMBER_OF_BYTES : 76091

Видео
Идентификатор : 1
Формат : AVC
Формат/Информация : Advanced Video Codec
Профиль формата : High@L4.1
Параметр CABAC формата : Да
Параметр ReFrames формата : 9 кадров
Идентификатор кодека : V_MPEG4/ISO/AVC
Продолжительность : 2 ч. 0 м.
Битрейт : 3670 Кбит/сек
Ширина : 1280 пикселей
Высота : 536 пикселей
Соотношение сторон : 2,40:1
Режим частоты кадров : Постоянный
Частота кадров : 24,000 кадра/сек
Цветовое пространство : YUV
Субдискретизация насыщенности : 4:2:0
Битовая глубина : 8 бит
Тип развёртки : Прогрессивная
Бит/(Пиксели*Кадры) : 0.223
Размер потока : 3,08 Гбайт (79%)
Заголовок : BDRip -- STarankov
Библиотека кодирования : x264 core 142 r2431 ac76440
Настройки программы : cabac=1 / ref=9 / deblock=1:-2:-2 / analyse=0x3:0x113 / me=umh / subme=10 / psy=1 / psy_rd=1.00:0.15 / mixed_ref=1 / me_range=32 / chroma_me=1 / trellis=2 / 8x8dct=1 / cqm=0 / deadzone=21,11 / fast_pskip=1 / chroma_qp_offset=-3 / threads=6 / lookahead_threads=1 / sliced_threads=0 / nr=0 / decimate=1 / interlaced=0 / bluray_compat=0 / constrained_intra=0 / bframes=8 / b_pyramid=2 / b_adapt=2 / b_bias=0 / direct=3 / weightb=1 / open_gop=0 / weightp=2 / keyint=230 / keyint_min=23 / scenecut=40 / intra_refresh=0 / rc_lookahead=40 / rc=crf / mbtree=0 / crf=18.0 / qcomp=0.60 / qpmin=0 / qpmax=69 / qpstep=4 / vbv_maxrate=40000 / vbv_bufsize=50000 / crf_max=0.0 / nal_hrd=none / filler=0 / ip_ratio=1.40 / pb_ratio=1.30 / aq=1:1.00
Язык : French
Default : Да
Forced : Нет
DURATION : 02:00:06.959000000
NUMBER_OF_FRAMES : 172967
NUMBER_OF_BYTES : 3387906080
_STATISTICS_WRITING_APP : mkvmerge v7.7.0 ('Six Voices') 64bit built on Feb 28 2015 23:39:33
_STATISTICS_WRITING_DATE_UTC : 2015-03-25 03:39:08
_STATISTICS_TAGS : BPS DURATION NUMBER_OF_FRAMES NUMBER_OF_BYTES

Аудио #1
Идентификатор : 2
Формат : AC-3
Формат/Информация : Audio Coding 3
Расширение режима : CM (complete main)
Параметр Endianness формата : Big
Идентификатор кодека : A_AC3
Продолжительность : 2 ч. 0 м.
Вид битрейта : Постоянный
Битрейт : 448 Кбит/сек
Каналы : 6 каналов
Расположение каналов : Front: L C R, Side: L R, LFE
Частота : 48,0 КГц
Битовая глубина : 16 бит
Метод сжатия : С потерями
Размер потока : 385 Мбайт (10%)
Заголовок : MVO (студия "Пифагор")
Язык : Russian
Default : Да
Forced : Нет

Аудио #2
Идентификатор : 3
Формат : AC-3
Формат/Информация : Audio Coding 3
Расширение режима : CM (complete main)
Параметр Endianness формата : Big
Идентификатор кодека : A_AC3
Продолжительность : 2 ч. 0 м.
Вид битрейта : Постоянный
Битрейт : 448 Кбит/сек
Каналы : 6 каналов
Расположение каналов : Front: L C R, Side: L R, LFE
Частота : 48,0 КГц
Битовая глубина : 16 бит
Метод сжатия : С потерями
Размер потока : 385 Мбайт (10%)
Заголовок : Original
Язык : French
Default : Нет
Forced : Нет

Текст
Идентификатор : 4
Формат : UTF-8
Идентификатор кодека : S_TEXT/UTF8
Идентификатор кодека/Информация : UTF-8 Plain Text
Заголовок : русские
Язык : Russian
Default : Нет
Forced : Нет
pb.wtf



Скачать Париж! Париж! через торрент http://i66.fastpic.ru/big/2015/0325/c4/e37989ae115b82680fcdf16ff80e16c4.jpg Скачать фильм Париж! Париж! через торрент бесплантно в хорошем качестве Описание: Париж 1936-го года. Трое безработных артистов решают силой вернуть себе концертный зал «Шансония», где они когда-то выступали. Но ... 5 10 1
Торрент: Зарегистрирован [2015-03-25 11:17] · скачан: 38 раз
Статус: √ проверено
Размер: 3.91 GB
Как cкачать? Как скачать Париж! Париж! через торрент | qTorrent

% Раздел Тема Автор DL S | L
Фильмы 2006-2008 [ 2.5 GB ] Париж! Париж! / Faubourg 36 [2008 мюзикл музыка BDRip-AVC] MVO msltel Скачать
1 | 0

28-11-2019 20:33  

Отключить всю рекламу на сайте

    Дорогой пользователь! Огромная просьба, поблагодарите релизера, оцените раздачу и оставьте свои комментарий, если Вы скачали Париж! Париж! через торрент бесплатно! Внесите свою лепту в развитие PiratBit!
    Комментировать посты могут только пользователи прошедшие не сложную регистрацию
    Показать сообщения:    

    Париж! Париж! через торрент
    Скачать бесплатно Париж! Париж!
    Париж! Париж! скачать торрент
    Париж! Париж! смотреть онлайн
    Cкачать фильм Париж! Париж! бесплатно
    Париж! Париж! скачать торрент в хорошем качестве
    Париж! Париж! смотреть онлайн бесплатно в хорошем качестве


    Вы не можете начинать темы
    Вы не можете отвечать на сообщения
    Вы не можете редактировать свои сообщения
    Вы не можете удалять свои сообщения
    Вы не можете голосовать в опросах
    Вы не можете прикреплять файлы к сообщениям
    Вы можете скачивать файлы