2 сезон

iTunes

1 сезон

1

iTunes

iTunes

iTunes

1 сезон

RePack

30

ИГРА 18+

pack

ВАЖНО

!!Акция!!

Alien_RageХит недели

RePack

MK11
pack

Забери бонус

RePack

jed

!!Акция!!

Alien_Rage

RePack

fifa19

RePack

Assassins Creed: Odyssey

RePack

NEED FOR SPEED™ PAYBACK

4 сезон

9 сезон

Бесстыжие 9 сезон

Все сериалы

все сериалы на PB.wtf

RePack

FAR CRY 5
  

Бригада (1-15 серии из 15) (Алексей Сидоров) [2002 г., Драма, криминал, DVDRip-AVC] Оригинал pb.wtf

Бригада через торрент pb.wtf

Раздают: 3 [ 0 KB/s ]
Размер: 12.65 GB | Добавлен: 7 мес. назад | Торрент скачан:71 раз
Скачать  

25-03-2015 12:31 Бригада Скачать торрент  

Бригада
Год выпуска: 2002
Страна: Россия
Жанр: Драма, криминал
Продолжительность: 15 x ~ 00:51:00
Перевод: Оригинал
Субтитры: нет

Режиссер: Алексей Сидоров

В ролях: Сергей Безруков, Дмитрий Дюжев, Павел Майков, Владимир Вдовиченков, Екатерина Гусева, Андрей Панин, Валентина Теличкина, Алексей Кравченко, Александр Высоковский, Александра Назарова, Николай Ерёменко мл., Александр Иншаков, Мария Аронова, Александр Белявский, Мария Порошина, Ян Цапник, Светлана Чуйкина, Сергей Гармаш, Фархад Махмудов, Валерий Трошин, Александра Флоринская, Анатолий Белый, Сергей Апрельский, Наталья Панова, Леонид Куравлёв, Дарья Повереннова, Виталий Безруков, Владимир Довжик, Александр Фастовский, Пётр Меркурьев, Даниил Страхов, Константин Спасский, Николай Лещуков, Сергей Рубеко, Михаил Жигалов, Филипп Феоктистов, Алла Мещерякова, Виктор Павлов, Дмитрий Гуменецкий

Описание: Это история четырех друзей детства, обычных московских парней, Саши Белого, Космоса, Пчелы и Фила, выросших в одном дворе. Друзья решили немного подзаработать, но незапланированное убийство вмиг перемешало все задуманное, поставив на кон их жизни. Ставка слишком высока, но отступать некуда. Теперь парни прокладывают себе дорогу в криминальном мире и волею судеб превращаются в одну из самых сплоченных и влиятельных группировок…

Качество: DVDRip-AVC
Формат: MKV
Видео кодек: AVC
Аудио кодек: AC3
Видео: MPEG-4 AVC, (746x448),1860 Кбит/с, 25.000кадра/сек
Аудио#1: AC3, 6 ch,448 kbps (Rus) 48.0 KHz Оригинал
скриншот  скриншот  скриншот  

Тип потока: Видео
Длительность: 00:51:00
Кодек: AVC
Кодек/описание: Advanced Video Codec
Кодек/профиль: High@L4.1
Кодек/ID: V_MPEG4/ISO/AVC
Кодек/CABAC: Yes
Кодек/ReFrames: 16 frames
Размеры изображения: 702 x 448 (1.667)
Частота кадров: 25.000 fps
Частота кадров/тип: Constant
Размер потока: 662 MiB (79%)
Битрейт: 1 860 Kbps
Библиотека кодирования: x264 core 129 r2245 bc13772
Цветовое пространство: YUV
Тип развёртки: Progressive
Колориметрия: 4:2:0
Глубина: 8 bits
:
Тип потока: Звук #1
Язык: Russian
Длительность: 00:51:00.600
Кодек: AC-3
Кодек/описание: Audio Coding 3
Кодек/ID: A_AC3
Частота дискретизации: 48.0 KHz
Каналов: 6 channels
Битрейт: 448 Kbps
Битрейт/тип: Constant
Размер потока: 163 MiB (19%)
Глубина: 16 bits
Метод сжатия: Lossy

pb.wtf



Скачать Бригада через торрент https://i1.imageban.ru/out/2020/03/30/ec6e1c45b8ce4f67b88bcccdb3874003.jpg Скачать фильм Бригада через торрент бесплантно в хорошем качестве Описание: Это история четырех друзей детства, обычных московских парней, Саши Белого, Космоса, Пчелы и Фила, выросших в одном дворе. Друзья ... 9.7 10 63
Info! Золотая раздача, скачанное не засчитывается.
Торрент: Зарегистрирован [2020-03-30 15:30] · скачан: 71 раз
Статус: √ проверено
Размер: 12.65 GB
Как cкачать? Как скачать Бригада через торрент | qTorrent

% Раздел Тема Автор DL S | L
T Фильмы без перевода [ 3.59 GB ] Инран: Волчья бригада / Inrang [2018 WEBRip 1080p Перевод отсутствует Оригинал Корейский] Userman4ik Скачать
1 | 0
Наши фильмы (Blu-ray, BD-Remux, HDDVD) [ 17.43 GB ] Бригада: Наследник [2012 Blu-ray Оригинальный] Бумер Скачать
1 | 0
Сборники и Сиквелы (48-60 fps) [ 56.31 GB ] Бригада [2002 DVDRip] Оригинал / 60 fps / от R.G. HD-Film Ressident Скачать
1 | 0
Документальные фильмы и телепередачи [ 1.93 GB ] Как снималась Бригада? [2002 Документальный DVB Оригинал] Бумер Скачать
1 | 0
Наши новые фильмы 2012 [ 1.37 GB ] Бригада: Наследник [2012 DVDRip Оригинал лицензия] Seedtank Скачать
1 | 0
Документальные фильмы и телепередачи [ 350 MB ] 60 часов Майкопской бригады [1995 документальный VHSRip Оригинал] metanoia Скачать
1 | 0


Последний раз редактировалось: Бумер (2020-03-30 15:55), всего редактировалось 22 раз(а)

28-11-2019 20:33  

Отключить всю рекламу на сайте

25-03-2015 12:38 Бригада Скачать торрент  

5000 очков золотоpb.wtf



25-03-2015 12:38 Бригада Скачать торрент  

сериал супер!!!! решил пересмотреть и за одно залить на трекерpb.wtf



25-03-2015 12:57 Бригада Скачать торрент  

Бумер писал(а):

5000 очков золото

надо не 5000 а еще больше отличное кино редко встретишь сейчасpb.wtf



25-03-2015 15:47 Бригада Скачать торрент  

Ух ты класс! к пересмотру обязательно!!! pb.wtf



23-02-2017 20:48 Бригада Скачать торрент  

Полностью ЗАААААААА!pb.wtf



30-03-2020 15:53 Бригада Скачать торрент  

Озолотил. Качайте, парни. А я к Вам присоединюсь!pb.wtf



30-03-2020 17:22 Бригада Скачать торрент  

классикаpb.wtf



18-10-2020 14:07 Бригада Скачать торрент  

ребят скорости дайте плизpb.wtf



30-10-2020 15:16 Бригада Скачать торрент  

Бумер писал(а):

сериал супер!!!! решил пересмотреть и за одно залить на трекер

А в AVI не зальешь?pb.wtf



    Дорогой пользователь! Огромная просьба, поблагодарите релизера, оцените раздачу и оставьте свои комментарий, если Вы скачали Бригада через торрент бесплатно! Внесите свою лепту в развитие PiratBit!
    Комментировать посты могут только пользователи прошедшие не сложную регистрацию
    Показать сообщения:    

    Бригада через торрент
    Скачать бесплатно Бригада
    Бригада скачать торрент
    Бригада смотреть онлайн
    Cкачать фильм Бригада бесплатно
    Бригада скачать торрент в хорошем качестве
    Бригада смотреть онлайн бесплатно в хорошем качестве


    Вы не можете начинать темы
    Вы не можете отвечать на сообщения
    Вы не можете редактировать свои сообщения
    Вы не можете удалять свои сообщения
    Вы не можете голосовать в опросах
    Вы не можете прикреплять файлы к сообщениям
    Вы можете скачивать файлы