Ссылка на приватное зеркало всего за 1$. Внимание количество ограничено!!!

OK

1+1

iTunes

мы

OK

1

WEB-DLRip

Джокер

Пифагор

Ведьмак / The Witcher сериал

iTunes

ПШазам

ОК

Оно 2

iTunes

30
pack

Вам бонус

ВАЖНО

!!Акция!!

Alien_RageХит недели

RePack

Resident Evil 21

ИГРА 18+

pack

RePack

jed

RePack

fifa19

RePack

Assassins Creed: Odyssey

RePack

NEED FOR SPEED™ PAYBACK

4 сезон

9 сезон

Бесстыжие 9 сезон

Все сериалы

все сериалы на PB.wtf

RePack

FAR CRY 5
  

Кибер / Blackhat (Майкл Манн ) [2015, боевик, триллер, драма, WEB-DLRip, Дубляж] iTunes pb.wtf

Кибер через торрент pb.wtf

Размер: 2.05 GB | Добавлен: 4 года 10 мес. назад | Торрент скачан:3797 раз
Скачать  

25-03-2015 22:32 Кибер Скачать торрент  


Кибер / Blackhat
«Вы больше не можете защитить себя»

ИНФОРМАЦИЯ:
Год выпуска:2015
Страна: США
Жанр: боевик, триллер, драма, криминал, детектив
Продолжительность: 02:12:55
Перевод: Дубляж - [Лицензия / iTunes]
Режиссер: Майкл Манн

В Ролях:


Крис Хемсворт (Nick Hathaway), Ван Лихом (Chen Dawai), Тан Вэй (Chen Lien), Виола Дэвис (Carol Barrett), Холт МакКэллани (Mark Jessup), Энди Он (Alex Trang), Ричи Костер (Elias Kassar), Кристиан Борл (Jeff Robichaud), Джон Ортис (Henry Pollack), Йорик ван Вагенинген (Sadak), Тайсон Чак (Tech), Брэндон Молале (Sort Guard)

ОПИСАНИЕ:
Спокойная, размеренная жизнь современного мирового пространства. Кажется, что ничто не может нарушить равномерный, плавный ход событий, жизнь настолько механизирована, все рассчитано до мельчайшей детали, что, казалось бы, что может произойти? Какое событие может выбить из колеи столь идеально отлаженную машину? Однако именно разработки в области новейших технологий представляют главную угрозу человечеству. Лучшие ученые умы из США и Китая объединяют силы в борьбе против самой мощной кибернетической атаки.

  • Мировая премьера:15 января 2015

    ТЕХ.ДАННЫЕ:
    Качество: WEB-DLRip
    Формат: AVI
    Видео кодек: XviD
    Аудио кодек: AC3
    Видео: XviD, 720x304 (2.35:1), 1816 kbps, 23,976 fps, 0,330 bpp
    Аудио: AC3 / 5.1 / 48 kHz / 384 kbps / 16 bit



    Код:

    General
    Complete name                            : D:\Торенты\K1ber.2015.D.WEB-DLRp.2100MB.avi
    Format                                   : AVI
    Format/Info                              : Audio Video Interleave
    File size                                : 2.05 GiB
    Duration                                 : 2h 12mn
    Overall bit rate                         : 2 212 Kbps
    Writing application                      : VirtualDubMod 1.5.10.3 | www.virtualdub-fr.org || (build 2550/release)
    Writing library                          : VirtualDubMod build 2550/release

    Video
    ID                                       : 0
    Format                                   : MPEG-4 Visual
    Format profile                           : Advanced Simple@L5
    Format settings, BVOP                    : 2
    Format settings, QPel                    : No
    Format settings, GMC                     : No warppoints
    Format settings, Matrix                  : Default (MPEG)
    Codec ID                                 : XVID
    Codec ID/Hint                            : XviD
    Duration                                 : 2h 12mn
    Bit rate                                 : 1816 Kbps
    Width                                    : 720 pixels
    Height                                   : 304 pixels
    Display aspect ratio                     : 2.35:1
    Frame rate                               : 23.976 fps
    Color space                              : YUV
    Chroma subsampling                       : 4:2:0
    Bit depth                                : 8 bits
    Scan type                                : Progressive
    Compression mode                         : Lossy
    Bits/(Pixel*Frame)                       : 0.330
    Stream size                              : 1.61 GiB (78%)
    Writing library                          : XviD 1.2.1 (UTC 2008-12-04)

    Audio
    ID                                       : 1
    Format                                   : AC-3
    Format/Info                              : Audio Coding 3
    Mode extension                           : CM (complete main)
    Codec ID                                 : 2000
    Duration                                 : 2h 12mn
    Bit rate mode                            : Constant
    Bit rate                                 : 384 Kbps
    Channel(s)                               : 6 channels
    Channel positions                        : Front: L C R, Side: L R, LFE
    Sampling rate                            : 48.0 KHz
    Bit depth                                : 16 bits
    Compression mode                         : Lossy
    Stream size                              : 365 MiB (17%)
    Alignment                                : Split accross interleaves

    Скриншоты:


    © Оформление by Ворон
    pb.wtf



  • Скачать Кибер через торрент http://pic.kartinco.top/images/6/ordi9.jpg Скачать фильм Кибер через торрент бесплантно в хорошем качестве Е:Спокойная, размеренная жизнь современного мирового пространства. Кажется, что ничто не может нарушить равномерный, плавный ход событий, ... 9.1 10 73
    Info! Золотая раздача, скачанное не засчитывается.
    Торрент: Зарегистрирован [2015-03-25 22:32] · скачан: 3 797 раз
    Статус: √ проверено
    Размер: 2.05 GB
    Как cкачать? Как скачать Кибер через торрент | qTorrent

    % Раздел Тема Автор DL S | L
    Фильмы 2015 [DVDrip, WEB-DLRip, HDrip] [ 1.46 GB ] Кибер / Blackhat [2015 WEB-DLRip ] Ворон Скачать
    1 | 0

    28-11-2019 20:33  

    Отключить всю рекламу на сайте


    26-03-2015 09:18 Кибер Скачать торрент  

    Ну что, как кино? Стоит смотреть?pb.wtf



    26-03-2015 13:20 Кибер Скачать торрент  

    я правильно понял... "Тор" ботана умного играет?pb.wtf



    27-03-2015 20:00 Кибер Скачать торрент  

    Че фильм про Тора-ботана?pb.wtf



    27-03-2015 20:01 Кибер Скачать торрент  

    Фу Тор-ботан фуpb.wtf



    27-03-2015 20:39 Кибер Скачать торрент  

    Фильм такой нормальный, не обременяющий мозг боевичек.
    А Тор здесь кстати не особо и ботан.pb.wtf



    28-03-2015 16:34 Кибер Скачать торрент  

    Ander2084 писал(а):

    Фильм такой нормальный, не обременяющий мозг боевичек.
    А Тор здесь кстати не особо и ботан.

    Согласен не гоните на актера! Хорошая работа! На вечер пятницы идет!pb.wtf



    28-03-2015 18:02 Кибер Скачать торрент  

    НУДНЫЙpb.wtf



    03-04-2015 20:33 Кибер Скачать торрент  

    блин, такая фигня что слов нет. все такое дешевое... чё Тор согласился на это?! Посмотрел половину, дальше сил нет смотреть.pb.wtf



    07-04-2015 07:45 Кибер Скачать торрент  

    Уснул на 20-й минуте pb.wtf



    07-04-2015 10:50 Кибер Скачать торрент  

    Ахаха! рейтингу и комментам спасибо=) В топку!pb.wtf



      Дорогой пользователь! Огромная просьба, поблагодарите релизера, оцените раздачу и оставьте свои комментарий, если Вы скачали Кибер через торрент бесплатно! Внесите свою лепту в развитие PiratBit!
      Комментировать посты могут только пользователи прошедшие не сложную регистрацию
      Показать сообщения:    

      Кибер через торрент
      Скачать бесплатно Кибер
      Кибер скачать торрент
      Кибер смотреть онлайн
      Cкачать фильм Кибер бесплатно
      Кибер скачать торрент в хорошем качестве
      Кибер смотреть онлайн бесплатно в хорошем качестве


      Вы не можете начинать темы
      Вы не можете отвечать на сообщения
      Вы не можете редактировать свои сообщения
      Вы не можете удалять свои сообщения
      Вы не можете голосовать в опросах
      Вы не можете прикреплять файлы к сообщениям
      Вы можете скачивать файлы