MEGA NEWS Получи личный уникальный адрес сайта и защити себя от блокировок. Внимание количество ограничено!!!

iTunes

1+1

iTunes

мы

iTunes

1

iTunes

Чернобыль

iTunes

Ральф против интернета

Лицензия

ПШазам

Лицензия

Игра престолов

Лицензия

30
pack

ВАЖНО

!!Акция!!

Alien_RageХит недели

RePack

Resident Evil 21

ИГРА 18+

pack

RePack

Metro:Exodus

!!Акция!!

Alien_Rage

RePack

fifa19

RePack

Assassins Creed: Odyssey

RePack

NEED FOR SPEED™ PAYBACK

3 сезон

9 сезон

Бесстыжие 9 сезон

Все сериалы

все сериалы на PB.wtf

RePack

FAR CRY 5
Ребята, катастрофически не хватает 1900р. для оплаты серверов за АВГУСТ (всвязи с блокировками трафик упал в 3 раза), 1-2р., выручайте.
  

Мегрэ и дело Сен-Фиакр / Maigret et l'affaire Saint-Fiacre (Жан Деланнуа) [1959, триллер, BDRip-AVC] MVO pb.wtf

Мегрэ и дело Сен-Фиакр через торрент pb.wtf

Размер: 2.53 GB | Добавлен: 4 года 6 мес. назад | Торрент скачан:14 раз
Скачать  

27-03-2015 08:09 Мегрэ и дело Сен-Фиакр Скачать торрент  

Мегрэ и дело Сен-Фиакр / Maigret et l'affaire Saint-Fiacre

Год выпуска: 1959
Страна: Франция, Италия
Жанр: триллер
Продолжительность: 01:41:16
Перевод: профессиональный многоголосый
Субтитры: русские

Режиссёр: Жан Деланнуа

В ролях: Жан Габен, Мишель Оклер, Валентайн Тессьер, Жак Морел, Мишель Витольд, Габриель Фонтан, Жан-Пьерр Гранваль, Жак Иллинг

Описание: Комиссар Мегрэ направляется в провинцию, в места, где прошли его детство, юность, где он вырос и повзрослел, где его ещё помнят как желторотого юнца Жюля. Что же привело его сюда? Графиня де Сен-Фиакр, получившая страшное анонимное письмо, предрекающее ей скорую смерть, вызывает комиссара в надежде, что он сможет защитить её и спасти от тайного недоброжелателя. Удастся ли комиссару предотвратить готовящееся злодеяние? Ведь в письме чёрным по белому написано: «Час расплаты настал. Ты умрёшь до утренней мессы»... Фильм снят по одноимённому роману Жоржа Сименона.



Качество: BDRip-AVC Сравнение с исходником
Формат: MKV
Видео кодек: H.264
Аудио кодек: AC3
Видео: 3191 Кбит/с, 960x576, 24 кадра/с, 0.240 bpp
Аудио 1: русский, AC3, 192 kbps, 1 ch, 48 kHz [профессиональный многоголосый, Film Prestige]
Аудио 2: французский, AC3, 192 kbps, 1 ch, 48 kHz [оригинал]
frame I:836 Avg QP:20.45 size: 80180
frame P:26316 Avg QP:21.73 size: 34810
frame B:118678 Avg QP:23.31 size: 12579

Общее
Уникальный идентификатор : 212151059724185832897320906622418543813 (0x9F9ACED04829FEE8B8050A8CB9B7E4C5)
Полное имя : D:VideoMegre i delo Sen-Fiakr.1959.BDRip.AVC.mkv
Формат : Matroska
Версия формата : Version 4 / Version 2
Размер файла : 2,53 Гбайт
Продолжительность : 1 ч. 41 м.
Общий поток : 3582 Кбит/сек
Дата кодирования : UTC 2015-03-27 03:50:16
Программа кодирования : mkvmerge v7.7.0 ('Six Voices') 64bit built on Feb 28 2015 23:39:33
Библиотека кодирования : libebml v1.3.1 + libmatroska v1.4.2
_STATISTICS_WRITING_APP : mkvmerge v7.7.0 ('Six Voices') 64bit built on Feb 28 2015 23:39:33
_STATISTICS_WRITING_DATE_UTC : 2015-03-27 03:50:16
_STATISTICS_TAGS : BPS DURATION NUMBER_OF_FRAMES NUMBER_OF_BYTES
DURATION : 01:40:21.915000000
NUMBER_OF_FRAMES : 1554
NUMBER_OF_BYTES : 99391

Видео
Идентификатор : 1
Формат : AVC
Формат/Информация : Advanced Video Codec
Профиль формата : High@L4.1
Параметр CABAC формата : Да
Параметр ReFrames формата : 9 кадров
Идентификатор кодека : V_MPEG4/ISO/AVC
Продолжительность : 1 ч. 41 м.
Битрейт : 3191 Кбит/сек
Ширина : 960 пикселей
Высота : 576 пикселей
Соотношение сторон : 1,667
Режим частоты кадров : Постоянный
Частота кадров : 24,000 кадра/сек
Цветовое пространство : YUV
Субдискретизация насыщенности : 4:2:0
Битовая глубина : 8 бит
Тип развёртки : Прогрессивная
Бит/(Пиксели*Кадры) : 0.240
Размер потока : 2,26 Гбайт (89%)
Заголовок : BDRip -- STarankov
Библиотека кодирования : x264 core 142 r2431 ac76440
Настройки программы : cabac=1 / ref=9 / deblock=1:-1:-1 / analyse=0x3:0x113 / me=umh / subme=10 / psy=1 / psy_rd=1.00:0.15 / mixed_ref=1 / me_range=32 / chroma_me=1 / trellis=2 / 8x8dct=1 / cqm=0 / deadzone=21,11 / fast_pskip=1 / chroma_qp_offset=-3 / threads=6 / lookahead_threads=1 / sliced_threads=0 / nr=0 / decimate=1 / interlaced=0 / bluray_compat=0 / constrained_intra=0 / bframes=12 / b_pyramid=2 / b_adapt=2 / b_bias=0 / direct=3 / weightb=1 / open_gop=0 / weightp=2 / keyint=230 / keyint_min=23 / scenecut=40 / intra_refresh=0 / rc_lookahead=40 / rc=crf / mbtree=0 / crf=19.0 / qcomp=0.60 / qpmin=0 / qpmax=69 / qpstep=4 / vbv_maxrate=40000 / vbv_bufsize=50000 / crf_max=0.0 / nal_hrd=none / filler=0 / ip_ratio=1.40 / pb_ratio=1.30 / aq=1:1.00
Язык : French
Default : Да
Forced : Нет
DURATION : 01:41:16.250000000
NUMBER_OF_FRAMES : 145830
NUMBER_OF_BYTES : 2475981580
_STATISTICS_WRITING_APP : mkvmerge v7.7.0 ('Six Voices') 64bit built on Feb 28 2015 23:39:33
_STATISTICS_WRITING_DATE_UTC : 2015-03-27 03:50:16
_STATISTICS_TAGS : BPS DURATION NUMBER_OF_FRAMES NUMBER_OF_BYTES

Аудио #1
Идентификатор : 2
Формат : AC-3
Формат/Информация : Audio Coding 3
Расширение режима : CM (complete main)
Параметр Endianness формата : Big
Идентификатор кодека : A_AC3
Продолжительность : 1 ч. 41 м.
Вид битрейта : Постоянный
Битрейт : 192 Кбит/сек
Каналы : 1 канал
Расположение каналов : Front: C
Частота : 48,0 КГц
Битовая глубина : 16 бит
Метод сжатия : С потерями
Размер потока : 139 Мбайт (5%)
Заголовок : MVO (Film Prestige)
Язык : Russian
Default : Да
Forced : Нет

Аудио #2
Идентификатор : 3
Формат : AC-3
Формат/Информация : Audio Coding 3
Расширение режима : CM (complete main)
Параметр Endianness формата : Big
Идентификатор кодека : A_AC3
Продолжительность : 1 ч. 41 м.
Вид битрейта : Постоянный
Битрейт : 128 Кбит/сек
Каналы : 1 канал
Расположение каналов : Front: C
Частота : 48,0 КГц
Битовая глубина : 16 бит
Метод сжатия : С потерями
Размер потока : 92,7 Мбайт (4%)
Заголовок : Original
Язык : French
Default : Нет
Forced : Нет

Текст
Идентификатор : 4
Формат : UTF-8
Идентификатор кодека : S_TEXT/UTF8
Идентификатор кодека/Информация : UTF-8 Plain Text
Заголовок : русские
Язык : Russian
Default : Нет
Forced : Нет
pb.wtf



Скачать Мегрэ и дело Сен-Фиакр через торрент http://i59.fastpic.ru/big/2015/0327/d0/62f210e4d6b70276b5cd2324e65be8d0.jpg Скачать фильм Мегрэ и дело Сен-Фиакр через торрент бесплантно в хорошем качестве Описание: Комиссар Мегрэ направляется в провинцию, в места, где прошли его детство, юность, где он вырос и повзрослел, где его ещё помнят ... 10 10 2
Info! Золотая раздача, скачанное не засчитывается.
Торрент: Зарегистрирован [2015-03-27 08:09] · скачан: 14 раз
Статус: √ проверено
Размер: 2.53 GB
Как cкачать? Как скачать Мегрэ и дело Сен-Фиакр через торрент | qTorrent


>> Регистрируемся здесь <<






Отзывы и комментарии о схеме читаем и пишем здесь: ---> Отзывы и комментарии о схеме

Новые благодарочки в телеграм довольных пользователей:
скриншот   скриншот   скриншот   скриншот   скриншот
    Дорогой пользователь! Огромная просьба, поблагодарите релизера, оцените раздачу и оставьте свои комментарий, если Вы скачали Мегрэ и дело Сен-Фиакр через торрент бесплатно! Внесите свою лепту в развитие PiratBit!
    Комментировать посты могут только пользователи прошедшие не сложную регистрацию
    Показать сообщения:    

    Мегрэ и дело Сен-Фиакр через торрент
    Скачать бесплатно Мегрэ и дело Сен-Фиакр
    Мегрэ и дело Сен-Фиакр скачать торрент
    Мегрэ и дело Сен-Фиакр смотреть онлайн
    Cкачать фильм Мегрэ и дело Сен-Фиакр бесплатно
    Мегрэ и дело Сен-Фиакр скачать торрент в хорошем качестве
    Мегрэ и дело Сен-Фиакр смотреть онлайн бесплатно в хорошем качестве


    Вы не можете начинать темы
    Вы не можете отвечать на сообщения
    Вы не можете редактировать свои сообщения
    Вы не можете удалять свои сообщения
    Вы не можете голосовать в опросах
    Вы не можете прикреплять файлы к сообщениям
    Вы можете скачивать файлы