Ссылка на приватное зеркало нашего сайта всего за 1$. Внимание количество ограничено!!!

2 сезон

iTunes

1 сезон

1

iTunes

iTunes

iTunes

1 сезон

RePack

30

ИГРА 18+

pack

ВАЖНО

!!Акция!!

Alien_RageХит недели

RePack

MK11
pack

Забери бонус

RePack

jed

!!Акция!!

Alien_Rage

RePack

fifa19

RePack

Assassins Creed: Odyssey

RePack

NEED FOR SPEED™ PAYBACK

4 сезон

9 сезон

Бесстыжие 9 сезон

Все сериалы

все сериалы на PB.wtf

RePack

FAR CRY 5
  

Мегрэ и дело Сен-Фиакр / Maigret et l'affaire Saint-Fiacre (Жан Деланнуа) [1959, триллер, BDRip 720p] MVO pb.wtf

Мегрэ и дело Сен-Фиакр через торрент pb.wtf

Размер: 4.45 GB | Добавлен: 5 лет 6 мес. назад | Торрент скачан:7 раз
Скачать  

27-03-2015 09:03 Мегрэ и дело Сен-Фиакр Скачать торрент  

Мегрэ и дело Сен-Фиакр / Maigret et l'affaire Saint-Fiacre

Год выпуска: 1959
Страна: Франция, Италия
Жанр: триллер
Продолжительность: 01:41:16
Перевод: профессиональный многоголосый
Субтитры: русские

Режиссёр: Жан Деланнуа

В ролях: Жан Габен, Мишель Оклер, Валентайн Тессьер, Жак Морел, Мишель Витольд, Габриель Фонтан, Жан-Пьерр Гранваль, Жак Иллинг

Описание: Комиссар Мегрэ направляется в провинцию, в места, где прошли его детство, юность, где он вырос и повзрослел, где его ещё помнят как желторотого юнца Жюля. Что же привело его сюда? Графиня де Сен-Фиакр, получившая страшное анонимное письмо, предрекающее ей скорую смерть, вызывает комиссара в надежде, что он сможет защитить её и спасти от тайного недоброжелателя. Удастся ли комиссару предотвратить готовящееся злодеяние? Ведь в письме чёрным по белому написано: «Час расплаты настал. Ты умрёшь до утренней мессы»... Фильм снят по одноимённому роману Жоржа Сименона.



Качество: BDRip 720p Сравнение с исходником
Формат: MKV
Видео кодек: H.264
Аудио кодек: AC3
Видео: 5845 Кбит/с, 1200x720, 24 кадра/с, 0.282 bpp
Аудио 1: русский, AC3, 192 kbps, 1 ch, 48 kHz [профессиональный многоголосый, Film Prestige]
Аудио 2: французский, AC3, 192 kbps, 1 ch, 48 kHz [оригинал]
frame I:832 Avg QP:20.45 size:111745
frame P:25069 Avg QP:21.62 size: 57221
frame B:119929 Avg QP:23.30 size: 25058

Общее
Уникальный идентификатор : 228245893809507780202534362451849035272 (0xABB68F6674EDF3F7BFF4E080432CBE08)
Полное имя : D:VideoMegre i delo Sen-Fiakr.1959.BDRip.720p.mkv
Формат : Matroska
Версия формата : Version 4 / Version 2
Размер файла : 4,45 Гбайт
Продолжительность : 1 ч. 41 м.
Общий поток : 6290 Кбит/сек
Дата кодирования : UTC 2015-03-26 03:19:55
Программа кодирования : mkvmerge v7.7.0 ('Six Voices') 64bit built on Feb 28 2015 23:39:33
Библиотека кодирования : libebml v1.3.1 + libmatroska v1.4.2
DURATION : 01:40:21.915000000
NUMBER_OF_FRAMES : 1554
NUMBER_OF_BYTES : 99391
_STATISTICS_WRITING_APP : mkvmerge v7.7.0 ('Six Voices') 64bit built on Feb 28 2015 23:39:33
_STATISTICS_WRITING_DATE_UTC : 2015-03-26 03:19:55
_STATISTICS_TAGS : BPS DURATION NUMBER_OF_FRAMES NUMBER_OF_BYTES

Видео
Идентификатор : 1
Формат : AVC
Формат/Информация : Advanced Video Codec
Профиль формата : High@L4.1
Параметр CABAC формата : Да
Параметр ReFrames формата : 9 кадров
Идентификатор кодека : V_MPEG4/ISO/AVC
Продолжительность : 1 ч. 41 м.
Битрейт : 5845 Кбит/сек
Ширина : 1200 пикселей
Высота : 720 пикселей
Соотношение сторон : 1,667
Режим частоты кадров : Постоянный
Частота кадров : 24,000 кадра/сек
Цветовое пространство : YUV
Субдискретизация насыщенности : 4:2:0
Битовая глубина : 8 бит
Тип развёртки : Прогрессивная
Бит/(Пиксели*Кадры) : 0.282
Размер потока : 4,13 Гбайт (93%)
Заголовок : BDRip -- STarankov
Библиотека кодирования : x264 core 142 r2431 ac76440
Настройки программы : cabac=1 / ref=9 / deblock=1:-1:-1 / analyse=0x3:0x113 / me=umh / subme=10 / psy=1 / psy_rd=1.00:0.15 / mixed_ref=1 / me_range=32 / chroma_me=1 / trellis=2 / 8x8dct=1 / cqm=0 / deadzone=21,11 / fast_pskip=1 / chroma_qp_offset=-3 / threads=6 / lookahead_threads=1 / sliced_threads=0 / nr=0 / decimate=1 / interlaced=0 / bluray_compat=0 / constrained_intra=0 / bframes=12 / b_pyramid=2 / b_adapt=2 / b_bias=0 / direct=3 / weightb=1 / open_gop=0 / weightp=2 / keyint=230 / keyint_min=23 / scenecut=40 / intra_refresh=0 / rc_lookahead=40 / rc=crf / mbtree=0 / crf=19.0 / qcomp=0.60 / qpmin=0 / qpmax=69 / qpstep=4 / vbv_maxrate=40000 / vbv_bufsize=50000 / crf_max=0.0 / nal_hrd=none / filler=0 / ip_ratio=1.40 / pb_ratio=1.30 / aq=1:1.00
Язык : French
Default : Да
Forced : Нет
DURATION : 01:41:16.250000000
NUMBER_OF_FRAMES : 145830
NUMBER_OF_BYTES : 4532674481
_STATISTICS_WRITING_APP : mkvmerge v7.7.0 ('Six Voices') 64bit built on Feb 28 2015 23:39:33
_STATISTICS_WRITING_DATE_UTC : 2015-03-26 03:19:55
_STATISTICS_TAGS : BPS DURATION NUMBER_OF_FRAMES NUMBER_OF_BYTES

Аудио #1
Идентификатор : 2
Формат : AC-3
Формат/Информация : Audio Coding 3
Расширение режима : CM (complete main)
Параметр Endianness формата : Big
Идентификатор кодека : A_AC3
Продолжительность : 1 ч. 41 м.
Вид битрейта : Постоянный
Битрейт : 192 Кбит/сек
Каналы : 1 канал
Расположение каналов : Front: C
Частота : 48,0 КГц
Битовая глубина : 16 бит
Метод сжатия : С потерями
Размер потока : 139 Мбайт (3%)
Заголовок : MVO (Film Prestige)
Язык : Russian
Default : Да
Forced : Нет

Аудио #2
Идентификатор : 3
Формат : AC-3
Формат/Информация : Audio Coding 3
Расширение режима : CM (complete main)
Параметр Endianness формата : Big
Идентификатор кодека : A_AC3
Продолжительность : 1 ч. 41 м.
Вид битрейта : Постоянный
Битрейт : 128 Кбит/сек
Каналы : 1 канал
Расположение каналов : Front: C
Частота : 48,0 КГц
Битовая глубина : 16 бит
Метод сжатия : С потерями
Размер потока : 92,7 Мбайт (2%)
Заголовок : Original
Язык : French
Default : Нет
Forced : Нет

Текст
Идентификатор : 4
Формат : UTF-8
Идентификатор кодека : S_TEXT/UTF8
Идентификатор кодека/Информация : UTF-8 Plain Text
Заголовок : русские
Язык : Russian
Default : Нет
Forced : Нет
pb.wtf



Скачать Мегрэ и дело Сен-Фиакр через торрент http://i59.fastpic.ru/big/2015/0327/d0/62f210e4d6b70276b5cd2324e65be8d0.jpg Скачать фильм Мегрэ и дело Сен-Фиакр через торрент бесплантно в хорошем качестве Описание: Комиссар Мегрэ направляется в провинцию, в места, где прошли его детство, юность, где он вырос и повзрослел, где его ещё помнят ... 5 10 1
Info! Золотая раздача, скачанное не засчитывается.
Торрент: Зарегистрирован [2015-03-27 09:03] · скачан: 7 раз
Статус: √ проверено
Размер: 4.45 GB
Как cкачать? Как скачать Мегрэ и дело Сен-Фиакр через торрент | qTorrent

28-11-2019 20:33  

Отключить всю рекламу на сайте

    Дорогой пользователь! Огромная просьба, поблагодарите релизера, оцените раздачу и оставьте свои комментарий, если Вы скачали Мегрэ и дело Сен-Фиакр через торрент бесплатно! Внесите свою лепту в развитие PiratBit!
    Комментировать посты могут только пользователи прошедшие не сложную регистрацию
    Показать сообщения:    

    Мегрэ и дело Сен-Фиакр через торрент
    Скачать бесплатно Мегрэ и дело Сен-Фиакр
    Мегрэ и дело Сен-Фиакр скачать торрент
    Мегрэ и дело Сен-Фиакр смотреть онлайн
    Cкачать фильм Мегрэ и дело Сен-Фиакр бесплатно
    Мегрэ и дело Сен-Фиакр скачать торрент в хорошем качестве
    Мегрэ и дело Сен-Фиакр смотреть онлайн бесплатно в хорошем качестве


    Вы не можете начинать темы
    Вы не можете отвечать на сообщения
    Вы не можете редактировать свои сообщения
    Вы не можете удалять свои сообщения
    Вы не можете голосовать в опросах
    Вы не можете прикреплять файлы к сообщениям
    Вы можете скачивать файлы