2 сезон

iTunes

1 сезон

1

iTunes

iTunes

iTunes

1 сезон

RePack

30

ИГРА 18+

pack

ВАЖНО

!!Акция!!

Alien_RageХит недели

RePack

MK11
pack

Забери бонус

RePack

jed

!!Акция!!

Alien_Rage

RePack

fifa19

RePack

Assassins Creed: Odyssey

RePack

NEED FOR SPEED™ PAYBACK

4 сезон

9 сезон

Бесстыжие 9 сезон

Все сериалы

все сериалы на PB.wtf

RePack

FAR CRY 5
  

Вир и Зара / Veer-Zaara (Яш Чопра) [2004, мелодрама, драма, мюзикл, BDRip 720p] MVO pb.wtf

Вир и Зара через торрент pb.wtf

Размер: 7.34 GB | Добавлен: 5 лет 7 мес. назад | Торрент скачан:12 раз
Скачать  

27-03-2015 12:00 Вир и Зара Скачать торрент  

Вир и Зара / Veer-Zaara

Год выпуска: 2004
Страна: Индия
Жанр: мелодрама, драма, мюзикл
Продолжительность: 03:12:29
Перевод: профессиональный многоголосый
Субтитры: английские

Режиссёр: Яш Чопра

В ролях: Шахрукх Кхан, Прити Зинта, Рани Мукхерджи, Амитабх Баччан, Кирон Кхер, Дивья Датта, Боман Ирани, Анупам Кхер, Хема Малини, Манодж Баджпаи

Описание: Фильм начинается с показа бородатого Вира Пратапа Сингха, заключённого в пакистанскую тюрьму. За прошедшие годы заключения он не произнёс ни слова! В чём причина его молчания? Это предстоит выяснить защитнику прав человека Самии Сидикки (характер героини основан на личности известного пакистанского адвоката Асмы Джехангира), которая хочет помочь Виру выбраться из затруднительного положения. И ей удаётся его разговорить. С помощью ретроспективных кадров мы видим историю его любви...



Качество: BDRip 720p Сравнение с исходником
Формат: MKV
Видео кодек: H.264
Аудио кодек: AC3
Видео: 4456 Кбит/с, 1280x546, 24 кадра/с, 0.266 bpp
Аудио 1: русский, AC3, 448 kbps, 6 ch, 48 kHz [профессиональный многоголосый]
Аудио 2: хинди, AC3, 448 kbps, 6 ch, 48 kHz [оригинал]
frame I:1618 Avg QP:20.08 size: 97749
frame P:52782 Avg QP:21.42 size: 45338
frame B:222788 Avg QP:22.78 size: 18115

Общее
Уникальный идентификатор : 233186993571861522079885851148917039938 (0xAF6E2E6D5B9B5736B653EB5BFE2E6342)
Полное имя : D:VideoVir i Zara.2004.BDRip.720p.mkv
Формат : Matroska
Версия формата : Version 4 / Version 2
Размер файла : 7,34 Гбайт
Продолжительность : 3 ч. 12 м.
Общий поток : 5461 Кбит/сек
Дата кодирования : UTC 2015-03-27 06:33:58
Программа кодирования : mkvmerge v7.7.0 ('Six Voices') 64bit built on Feb 28 2015 23:39:33
Библиотека кодирования : libebml v1.3.1 + libmatroska v1.4.2
_STATISTICS_WRITING_APP : mkvmerge v7.7.0 ('Six Voices') 64bit built on Feb 28 2015 23:39:33
_STATISTICS_WRITING_DATE_UTC : 2015-03-27 06:33:58
_STATISTICS_TAGS : BPS DURATION NUMBER_OF_FRAMES NUMBER_OF_BYTES
DURATION : 03:09:20.291000000
NUMBER_OF_FRAMES : 1625
NUMBER_OF_BYTES : 91019

Видео
Идентификатор : 1
Формат : AVC
Формат/Информация : Advanced Video Codec
Профиль формата : High@L4.1
Параметр CABAC формата : Да
Параметр ReFrames формата : 9 кадров
Идентификатор кодека : V_MPEG4/ISO/AVC
Продолжительность : 3 ч. 12 м.
Битрейт : 4456 Кбит/сек
Ширина : 1280 пикселей
Высота : 546 пикселей
Соотношение сторон : 2,35:1
Режим частоты кадров : Постоянный
Частота кадров : 24,000 кадра/сек
Цветовое пространство : YUV
Субдискретизация насыщенности : 4:2:0
Битовая глубина : 8 бит
Тип развёртки : Прогрессивная
Бит/(Пиксели*Кадры) : 0.266
Размер потока : 5,99 Гбайт (82%)
Заголовок : BDRip -- STarankov
Библиотека кодирования : x264 core 142 r2431 ac76440
Настройки программы : cabac=1 / ref=9 / deblock=1:-1:-1 / analyse=0x3:0x113 / me=umh / subme=10 / psy=1 / psy_rd=1.00:0.15 / mixed_ref=1 / me_range=32 / chroma_me=1 / trellis=2 / 8x8dct=1 / cqm=0 / deadzone=21,11 / fast_pskip=1 / chroma_qp_offset=-3 / threads=6 / lookahead_threads=1 / sliced_threads=0 / nr=0 / decimate=1 / interlaced=0 / bluray_compat=0 / constrained_intra=0 / bframes=12 / b_pyramid=2 / b_adapt=2 / b_bias=0 / direct=3 / weightb=1 / open_gop=0 / weightp=2 / keyint=230 / keyint_min=23 / scenecut=40 / intra_refresh=0 / rc_lookahead=40 / rc=crf / mbtree=0 / crf=19.5 / qcomp=0.60 / qpmin=0 / qpmax=69 / qpstep=4 / vbv_maxrate=40000 / vbv_bufsize=50000 / crf_max=0.0 / nal_hrd=none / filler=0 / ip_ratio=1.40 / pb_ratio=1.30 / aq=1:1.00
Язык : Hindi
Default : Да
Forced : Нет
DURATION : 03:12:29.500000000
NUMBER_OF_FRAMES : 277188
NUMBER_OF_BYTES : 6586927859
_STATISTICS_WRITING_APP : mkvmerge v7.7.0 ('Six Voices') 64bit built on Feb 28 2015 23:39:33
_STATISTICS_WRITING_DATE_UTC : 2015-03-27 06:33:58
_STATISTICS_TAGS : BPS DURATION NUMBER_OF_FRAMES NUMBER_OF_BYTES

Аудио #1
Идентификатор : 2
Формат : AC-3
Формат/Информация : Audio Coding 3
Расширение режима : CM (complete main)
Параметр Endianness формата : Big
Идентификатор кодека : A_AC3
Продолжительность : 3 ч. 12 м.
Вид битрейта : Постоянный
Битрейт : 448 Кбит/сек
Каналы : 6 каналов
Расположение каналов : Front: L C R, Side: L R, LFE
Частота : 48,0 КГц
Битовая глубина : 16 бит
Метод сжатия : С потерями
Размер потока : 617 Мбайт (8%)
Заголовок : MVO
Язык : Russian
Default : Да
Forced : Нет

Аудио #2
Идентификатор : 3
Формат : AC-3
Формат/Информация : Audio Coding 3
Расширение режима : CM (complete main)
Параметр Endianness формата : Big
Идентификатор кодека : A_AC3
Продолжительность : 3 ч. 12 м.
Вид битрейта : Постоянный
Битрейт : 448 Кбит/сек
Каналы : 6 каналов
Расположение каналов : Front: L C R, Side: L R, LFE
Частота : 48,0 КГц
Битовая глубина : 16 бит
Метод сжатия : С потерями
Размер потока : 617 Мбайт (8%)
Заголовок : Original
Язык : Hindi
Default : Нет
Forced : Нет

Текст
Идентификатор : 4
Формат : UTF-8
Идентификатор кодека : S_TEXT/UTF8
Идентификатор кодека/Информация : UTF-8 Plain Text
Заголовок : английские
Язык : English
Default : Нет
Forced : Нет
pb.wtf



Скачать Вир и Зара через торрент http://i58.fastpic.ru/big/2015/0327/2d/82d998cee2dc9ca54a2397fd2606732d.jpg Скачать фильм Вир и Зара через торрент бесплантно в хорошем качестве Описание: Фильм начинается с показа бородатого Вира Пратапа Сингха, заключённого в пакистанскую тюрьму. За прошедшие годы заключения он не ... 10 10 4
Info! Золотая раздача, скачанное не засчитывается.
Торрент: Зарегистрирован [2015-03-27 12:00] · скачан: 12 раз
Статус: √ проверено
Размер: 7.34 GB
Как cкачать? Как скачать Вир и Зара через торрент | qTorrent

% Раздел Тема Автор DL S | L
Фильмы 2001-2005 [ 4.63 GB ] Вир и Зара / Veer-Zaara [2004 мюзикл BDRip-AVC] MVO msltel Скачать
1 | 0

28-11-2019 20:33  

Отключить всю рекламу на сайте

    Дорогой пользователь! Огромная просьба, поблагодарите релизера, оцените раздачу и оставьте свои комментарий, если Вы скачали Вир и Зара через торрент бесплатно! Внесите свою лепту в развитие PiratBit!
    Комментировать посты могут только пользователи прошедшие не сложную регистрацию
    Показать сообщения:    

    Вир и Зара через торрент
    Скачать бесплатно Вир и Зара
    Вир и Зара скачать торрент
    Вир и Зара смотреть онлайн
    Cкачать фильм Вир и Зара бесплатно
    Вир и Зара скачать торрент в хорошем качестве
    Вир и Зара смотреть онлайн бесплатно в хорошем качестве


    Вы не можете начинать темы
    Вы не можете отвечать на сообщения
    Вы не можете редактировать свои сообщения
    Вы не можете удалять свои сообщения
    Вы не можете голосовать в опросах
    Вы не можете прикреплять файлы к сообщениям
    Вы можете скачивать файлы