Ссылка на приватное зеркало нашего сайта всего за 1$. Внимание количество ограничено!!!

2 сезон

iTunes

1 сезон

1

iTunes

iTunes

iTunes

1 сезон

RePack

30

ИГРА 18+

pack

ВАЖНО

!!Акция!!

Alien_RageХит недели

RePack

MK11
pack

Забери бонус

RePack

jed

!!Акция!!

Alien_Rage

RePack

fifa19

RePack

Assassins Creed: Odyssey

RePack

NEED FOR SPEED™ PAYBACK

4 сезон

9 сезон

Бесстыжие 9 сезон

Все сериалы

все сериалы на PB.wtf

RePack

FAR CRY 5
  

Родина (1-12 серий из 12) (Павел Лунгин) [2015 г., Детектив, HDTV 1080p] pb.wtf

Родина через торрент pb.wtf

Размер: 31.83 GB | Добавлен: 5 лет 6 мес. назад | Торрент скачан:238 раз
Скачать  

27-03-2015 12:07 Родина Скачать торрент  

Родина
Год выпуска: 2015
Страна: Россия, «ВайТ Медиа»
Жанр: Детектив
Продолжительность: 12 x ~ 00:50:00
Перевод: Оригинал
Субтитры: нет

Режиссер: Павел Лунгин

В ролях: Владимир Машков, Виктория Исакова, Мария Миронова, Сергей Маковецкий, Андрей Мерзликин, Мария Шалаева, Тимофей Трибунцев, Валериу Андриуцэ, Алиса Хазанова, Софья Хилькова, Эрик Холявко-Гришин, Владимир Вдовиченков, Юсуп Бахшиев, Аркадий Парсегов, Алексей Нестеренко, Ирина Вербицкая, Алексей Коваль, Саид Багов, Андрей Межулис, Рамиля Искандер, Даша Русакова, Сергей Макаров (IV), Алла Малкова, Илья Исаев

Описание: В центре сюжета - противостояние эксперта-аналитика ФСБ и военного, который переживает пост-травматический синдром и подозревается в вербовке террористами. В этой истории есть и захватывающая интрига, которая держит зрителя в напряжении и неведении до последнего кадра, и сложная психологическая драма, где героям регулярно приходится делать выбор между личными и общечеловеческими ценностями: патриотизм или предательство, терпимость или религиозный фанатизм, семья или страсть. Действие сериала начинается в 1993 г. Майор морской пехоты Алексей Брагин и снайпер Юрий Хамзин пропали без вести во время военной операции федеральных войск на Северном Кавказе. Спустя шесть лет в ходе совместной спецоперации ФСБ и спецназа ГРУ на Северном Кавказе уничтожен лагерь по подготовке террористов; захвачен бункер, в котором обнаруживается прикованный к стене и заросший бородой Брагин. История майора, шесть лет считавшегося погибшим, быстро становится достоянием СМИ. Освобожденный Брагин находится в тяжелом психологическом и физическом состоянии, он изможден пытками и долгими годами одиночного заключения. С Брагиным начинают работать врачи и психологи, а также Анна, эксперт-аналитик контртеррористического центра ФСБ.

Качество: HDTV (1080p)
Формат: MPEG
Видео кодек: AVC
Аудио кодек: MP2
Видео: MPEG-4 AVC, (1920x1080),6800 Кбит/с, 25.000кадра/сек
Аудио#1: MP2, 2 ch,256 kbps (Rus) 48.0 KHz Оригинал
скриншот   скриншот   скриншот  

Тип потока: Видео
Длительность: 00:45:21
Кодек: AVC
Кодек/описание: Advanced Video Codec
Кодек/профиль: High@L4.0
Кодек/ID: 27
Кодек/CABAC: Yes
Кодек/ReFrames: 4 frames
Размеры изображения: 1920 x 1080 (16:9)
Частота кадров: 25.000 fps
Размер потока: 1.93 GiB (91%)
Битрейт: 6 101 Kbps
Стандарт: Component
Цветовое пространство: YUV
Тип развёртки: Interlaced
Колориметрия: 4:2:0
Глубина: 8 bits
:
Тип потока: Звук #1
Язык: English
Длительность: 00:45:21.336
Кодек: MPEG Audio
Кодек/профиль: Layer 2
Кодек/ID: 3
Частота дискретизации: 48.0 KHz
Каналов: 2 channels
Битрейт: 256 Kbps
Битрейт/тип: Constant
Размер потока: 83.0 MiB (4%)
Метод сжатия: Lossy

pb.wtf



Скачать Родина через торрент http://pic1.kartinco.top/images/10/dux2k.jpg Скачать фильм Родина через торрент бесплантно в хорошем качестве Описание: В центре сюжета - противостояние эксперта-аналитика ФСБ и военного, который переживает пост-травматический синдром и ... 9.8 10 17
Info! Золотая раздача, скачанное не засчитывается.
Торрент: Зарегистрирован [2015-03-27 12:07] · скачан: 238 раз
Статус: √ проверено
Размер: 31.83 GB
Как cкачать? Как скачать Родина через торрент | qTorrent

% Раздел Тема Автор DL S | L
Зарубежные сериалы [ 14.84 GB ] Родина: Форт Салем / Motherland: Fort Salem / Сезон: 1 / Серии: 1-10 из 10 [2020 WEB-DL 1080p] MVO [Кириллица] bober100 Скачать
1 | 0
Рок, Панк, Альтернатива (lossless) [ 449 MB ] Западный Фронт - Родина 2019 / FLAC / lossless / Rock bober100 Скачать
1 | 0
Рок, Панк, Альтернатива (lossless) [ 389 MB ] Западный Фронт - Родина 2019 / FLAC / lossless / Rock bober100 Скачать
1 | 0
Рок, Панк, Альтернатива (mp3) [ 127 MB ] Западный Фронт - Родина 2019 / MP3 / 320 kbps / Rock bober100 Скачать
1 | 0
Зарубежные сериалы [ 7.28 GB ] Родина: Форт Салем / Motherland: Fort Salem / Сезон: 1 / Серии: 1-10 из 10 [2020 WEB-DLRip] MVO [Кириллица] bober100 Скачать
1 | 0
Родина / Чужой среди своих / Homeland [ 7.82 GB ] Родина / Чужой среди своих / Homeland / Сезон: 8 / Серии: 1-12 из 12 [2020 WEB-DLRip] MVO [LostFilm] bober100 Скачать
2 | 0
Родина / Чужой среди своих / Homeland [ 8.06 GB ] Родина / Чужой среди своих / Homeland / Сезон: 7 / Серии: 1-12 из 12 [2018 WEB-DLRip] MVO [Lostfilm] bober100 Скачать
1 | 0


Последний раз редактировалось: Бумер (2015-03-27 12:16), всего редактировалось 1 раз

28-11-2019 20:33  

Отключить всю рекламу на сайте

27-03-2015 12:10 Родина Скачать торрент  

сериал супер!!!!! советую всемpb.wtf



27-03-2015 12:23 Родина Скачать торрент  

pb.wtf



27-03-2015 13:07 Родина Скачать торрент  

Сериал супер! Актеры играют лучше ,чем в американском аналоге "Homeland"pb.wtf



27-03-2015 13:58 Родина Скачать торрент  

Бумер писал(а):

сериал супер!!!!! советую всем

эх, ща как заценю!pb.wtf



27-03-2015 14:02 Родина Скачать торрент  

а HDTV (720p) будет?pb.wtf



27-03-2015 14:23 Родина Скачать торрент  

Раздаёт один качают 51???
pb.wtf



27-03-2015 15:54 Родина Скачать торрент  

ss777ss писал(а):

Раздаёт один качают 51???

человек только залил, ща уже 6 раздают! pb.wtf



27-03-2015 15:59 Родина Скачать торрент  

Машкову было проще, жаль что не рыжий. Виктории сложнее, по первости было смешно смотреть на то, она округляет глаза, изображая сумасшедшую и таблеткозависимую агентку. В дальнейшем вжилась в роль, и стала даже симпатичнее американского аналога. Для меня была проблема в сравнении. Если не сравнивать, то наша версия замечательна! yespb.wtf



28-03-2015 04:26 Родина Скачать торрент  

Машков как всегда на высоте!pb.wtf



    Дорогой пользователь! Огромная просьба, поблагодарите релизера, оцените раздачу и оставьте свои комментарий, если Вы скачали Родина через торрент бесплатно! Внесите свою лепту в развитие PiratBit!
    Комментировать посты могут только пользователи прошедшие не сложную регистрацию
    Показать сообщения:    

    Родина через торрент
    Скачать бесплатно Родина
    Родина скачать торрент
    Родина смотреть онлайн
    Cкачать фильм Родина бесплатно
    Родина скачать торрент в хорошем качестве
    Родина смотреть онлайн бесплатно в хорошем качестве


    Вы не можете начинать темы
    Вы не можете отвечать на сообщения
    Вы не можете редактировать свои сообщения
    Вы не можете удалять свои сообщения
    Вы не можете голосовать в опросах
    Вы не можете прикреплять файлы к сообщениям
    Вы можете скачивать файлы