2 сезон

iTunes

1 сезон

1

iTunes

iTunes

iTunes

1 сезон

RePack

30

ИГРА 18+

pack

ВАЖНО

!!Акция!!

Alien_RageХит недели

RePack

MK11
pack

Забери бонус

RePack

jed

!!Акция!!

Alien_Rage

RePack

fifa19

RePack

Assassins Creed: Odyssey

RePack

NEED FOR SPEED™ PAYBACK

4 сезон

9 сезон

Бесстыжие 9 сезон

Все сериалы

все сериалы на PB.wtf

RePack

FAR CRY 5
  

Девушка возвращается одна ночью домой / A Girl Walks Home Alone at Night (Ана Лили Амирпур / Ana Lily Amirpour) [2014, США, ужасы, триллер, мелодрама, WEB-DLRip, Любительский (двухголосый)[den904, DeadSno] pb.wtf

Девушка возвращается одна ночью домой через торрент pb.wtf

Размер: 1.46 GB | Добавлен: 5 лет 7 мес. назад | Торрент скачан:121 раз
Скачать  

27-03-2015 13:03 Девушка возвращается одна ночью домой Скачать торрент  

Девушка возвращается одна ночью домой / A Girl Walks Home Alone at Night
«Первый иранский Западный вампир»


  • Год выпуска: 2014
  • Страна: США
  • Жанр: ужасы, триллер, мелодрама
  • Продолжительность: 01:40:39
  • Перевод: Любительский (двухголосый)[den904, DeadSno]

  • Режиссер: Ана Лили Амирпур / Ana Lily Amirpour
  • В ролях:

    Шейла Ванд (The Girl), Араш Маранди (Arash), Маршалл Манеш (Hossein), Можан Марно (Atti), Амин Наземзадех (Saeed), Роум Шаданлу (Shaydah), Milad Eghbali (The Street Urchin), Реза Сиксо Сафаи (Rockabilly), Рэй Харатиан (The Boss, слухи), Педж Вахдат (DJ Porno)

  • Описание:
    События разворачиваются в вымышленном иранском городе Бэд Сити, полном проституции и преступлений, смерти и одиночества. Здесь живут вампиры, проститутки, наркоманы, сутенеры, ростовщики и, конечно же, собственный иранский Джеймс Дин.
  • Рейтинг:



  • Качество: WEB-DLRip
  • Формат: :AVI
  • Видео кодек: XviD
  • Аудио кодек: AC3
  • Видео: 720x304 (2.35:1), 1685 kbps, 23,976 fps, 0,321 bpp
  • Аудио №1: Русский 2.0 / 48 kHz / 192 kbps / 16 bit
  • Аудио №2: Английский 2.0 / 48 kHz / 192 kbps / 16 bit
  • Релиз от: GEKADOL

    Код:

    General
    Complete name                            : I:\A.Girl.Walks.Home.Alone.at.Night.2014.WEB-DLRip.avi
    Format                                   : AVI
    Format/Info                              : Audio Video Interleave
    File size                                : 1.46 GiB
    Duration                                 : 1h 40mn
    Overall bit rate                         : 2 083 Kbps
    Writing application                      : VirtualDubMod 1.5.10.3 | www.virtualdub-fr.org || (build 2550/release)
    Writing library                          : VirtualDubMod build 2550/release

    Video
    ID                                       : 0
    Format                                   : MPEG-4 Visual
    Format profile                           : Advanced Simple@L5
    Format settings, BVOP                    : 1
    Format settings, QPel                    : No
    Format settings, GMC                     : No warppoints
    Format settings, Matrix                  : Custom
    Codec ID                                 : XVID
    Codec ID/Hint                            : XviD
    Duration                                 : 1h 40mn
    Bit rate                                 : 1 685 Kbps
    Width                                    : 720 pixels
    Height                                   : 304 pixels
    Display aspect ratio                     : 2.35:1
    Frame rate                               : 23.976 fps
    Color space                              : YUV
    Chroma subsampling                       : 4:2:0
    Bit depth                                : 8 bits
    Scan type                                : Progressive
    Compression mode                         : Lossy
    Bits/(Pixel*Frame)                       : 0.321
    Stream size                              : 1.18 GiB (81%)
    Writing library                          : XviD 73

    Audio #1
    ID                                       : 1
    Format                                   : AC-3
    Format/Info                              : Audio Coding 3
    Mode extension                           : CM (complete main)
    Codec ID                                 : 2000
    Duration                                 : 1h 40mn
    Bit rate mode                            : Constant
    Bit rate                                 : 192 Kbps
    Channel(s)                               : 2 channels
    Channel positions                        : Front: L R
    Sampling rate                            : 48.0 KHz
    Bit depth                                : 16 bits
    Compression mode                         : Lossy
    Delay relative to video                  : 159ms
    Stream size                              : 138 MiB (9%)
    Alignment                                : Split accross interleaves
    Interleave, duration                     : 42 ms (1.00 video frame)
    Interleave, preload duration             : 500 ms

    Audio #2
    ID                                       : 2
    Format                                   : AC-3
    Format/Info                              : Audio Coding 3
    Mode extension                           : CM (complete main)
    Codec ID                                 : 2000
    Duration                                 : 1h 40mn
    Bit rate mode                            : Constant
    Bit rate                                 : 192 Kbps
    Channel(s)                               : 2 channels
    Channel positions                        : Front: L R
    Sampling rate                            : 48.0 KHz
    Bit depth                                : 16 bits
    Compression mode                         : Lossy
    Delay relative to video                  : 30ms
    Stream size                              : 138 MiB (9%)
    Alignment                                : Split accross interleaves
    Interleave, duration                     : 42 ms (1.00 video frame)
    Interleave, preload duration             : 500 ms




    Скриншоты:



    pb.wtf



  • Скачать Девушка возвращается одна ночью домой через торрент http://i68.fastpic.ru/big/2015/0327/b5/515563ab56838124ec8c72f1452885b5.jpg Скачать фильм Девушка возвращается одна ночью домой через торрент бесплантно в хорошем качестве Описание: События разворачиваются в вымышленном иранском городе Бэд Сити, полном проституции и преступлений, смерти и одиночества. Здесь ... 8.1 10 9
    Торрент: Зарегистрирован [2015-03-27 13:03] · скачан: 121 раз
    Статус: T временная
    Размер: 1.46 GB
    Как cкачать? Как скачать Девушка возвращается одна ночью домой через торрент | qTorrent

    28-11-2019 20:33  

    Отключить всю рекламу на сайте

    28-03-2015 08:16 Девушка возвращается одна ночью домой Скачать торрент  

    Штааа???!!!pb.wtf



    29-03-2015 05:43 Девушка возвращается одна ночью домой Скачать торрент  

    не удивлён...страна этого высера США...pb.wtf



      Дорогой пользователь! Огромная просьба, поблагодарите релизера, оцените раздачу и оставьте свои комментарий, если Вы скачали Девушка возвращается одна ночью домой через торрент бесплатно! Внесите свою лепту в развитие PiratBit!
      Комментировать посты могут только пользователи прошедшие не сложную регистрацию
      Показать сообщения:    

      Девушка возвращается одна ночью домой через торрент
      Скачать бесплатно Девушка возвращается одна ночью домой
      Девушка возвращается одна ночью домой скачать торрент
      Девушка возвращается одна ночью домой смотреть онлайн
      Cкачать фильм Девушка возвращается одна ночью домой бесплатно
      Девушка возвращается одна ночью домой скачать торрент в хорошем качестве
      Девушка возвращается одна ночью домой смотреть онлайн бесплатно в хорошем качестве


      Вы не можете начинать темы
      Вы не можете отвечать на сообщения
      Вы не можете редактировать свои сообщения
      Вы не можете удалять свои сообщения
      Вы не можете голосовать в опросах
      Вы не можете прикреплять файлы к сообщениям
      Вы можете скачивать файлы