Ссылка на приватное зеркало нашего сайта всего за 1$. Внимание количество ограничено!!!

2 сезон

iTunes

1 сезон

1

iTunes

iTunes

iTunes

1 сезон

RePack

30

ИГРА 18+

pack

ВАЖНО

!!Акция!!

Alien_RageХит недели

RePack

MK11
pack

Забери бонус

RePack

jed

!!Акция!!

Alien_Rage

RePack

fifa19

RePack

Assassins Creed: Odyssey

RePack

NEED FOR SPEED™ PAYBACK

4 сезон

9 сезон

Бесстыжие 9 сезон

Все сериалы

все сериалы на PB.wtf

RePack

FAR CRY 5
  

Ультиматум / Серии: 1-4 из 4 (Игорь Драка) [2015 г., Криминал, HDTV 1080i] pb.wtf

Ультиматум через торрент pb.wtf

Размер: 10.75 GB | Добавлен: 5 лет 7 мес. назад | Торрент скачан:192 раза
Скачать  

27-03-2015 23:17 Ультиматум Скачать торрент  


УльтиматумГод выпуска: 2015
Страна: Россия Триикс Медиа
Жанр: Криминал
Продолжительность: 4 х ~ 00:45:00

Режиссер: Игорь Драка
Продюссер: Инесса Юрченко, Сергей Щеглов (II)
Сценарий: Анна Улаева, Евгений Кукарин

Премьера в мире: 27 марта 2015 (НТВ)

В ролях: Михаил Тарабукин, Вера Баханкова, Антон Багров, Дарья Циберкина, Евгений Бакалов, Дмитрий Сутырин, Эрик Кения, Сергей Апрельский, Кирилл Полухин, Гавриил Федотов, Вячеслав Карпов, Аркадий Коваль, Виктор Мелихов, Олег Абалян, Владимир Постников, Константин Шелестун, Иван Васильев, Александра Самохина, Евгений Антонов, Глеб Степан Каллистов, Денис Кириллов, Светлана Бакулина, Анатолий Кондюбов, Артур Федынко

Описание: Главный герой сериала «Ультиматум» — Сергей Ярохин (старший следователь убойного отдела). Принципиальный и несгибаемый. Живущий ради правого дела и всегда готовый на риск. Его ненавидят и преступники, и нечистые на руку коллеги. Сергей Ярохин всегда доводил до конца самые сложные и опасные дела и никогда не боялся угроз.Во время одной из операций с участием ОМОН, которой Ярохин руководит лично, «берут» главаря банды наркодилеров, который пытается скрыться, прикрываясь своими помощниками. В итоге в тюрьме оказываются все: и мелкие распространители, и сам главарь преступной группировки, закоренелый бандит Анатолий Быков, или Бык.Во время встречи Быков угрожает Сергею — он уверен, что совсем скоро будет на свободе, причем, Сергей сам все сделает для того, чтобы его выпустили. У Быкова связи по всей области — и Сергей скоро получит тревожные новости…В это время подельники Быкова из соседнего города похищают сестру Сергея Лену — единственного его родного человека. После смерти родителей Лена осталась жить в родном городе, а Сергея по службе перевели в соседний — крупный областной центр. Преступники связываются с Ярохиным и озвучивают ультиматум: Быков должен выйти на свободу, иначе Елена Ярохина будет убита. Сам Быков над Сергеем только смеется — хоть к губернатору иди умоляй, но я должен выйти, иначе...Сергей обсуждает свою проблему с начальником и другом, полковником Дмитрием Швецовым. Сделать ничего нельзя, все доказательства вины Быкова собраны самим Сергеем, и развалить дело не получится. Но Сергей и не хочет его разваливать.Сергей принимается за расследование и поиски сестры, но полиция в охваченном коррупцией городе не собирается ему помогать. Сергею предстоит спасти свою сестру и восстановить справедливость. К тому же, пропажа Лены Ярохиной и криминальный бизнес, опутавший весь город, оказываются тесно связаны между собой.

Качество: HDTV 1080i
Формат: MPEG-TS / AVC
Видео кодек: MPEG4
Аудио кодек: MPEG Audio
Видео: MPEG4 Video (H264), 1920x1080, 25fps, 7 874 Kbps
Аудио: MPEG Audio, 48000Hz, stereo, 192kbps
Релиз от: daboen
Скриншоты:скриншот  скриншот  скриншот  скриншот  скриншот  скриншот  скриншот  




General
ID : 1 (0x1)
Complete name : E:\4003\Ultimatum.2014.HDTV.1080i\Ultimatum.(01.seriya).2014.HDTV.1080i.ts
Format : MPEG-TS
File size : 2.68 GiB
Duration : 45mn 13s
Overall bit rate mode : Variable
Overall bit rate : 8 487 Kbps

Video
ID : 901 (0x385)
Menu ID : 1029 (0x405)
Format : AVC
Format/Info : Advanced Video Codec
Format profile : Main@L4.0
Format settings, CABAC : Yes
Format settings, ReFrames : 2 frames
Codec ID : 27
Duration : 45mn 13s
Bit rate : 7 874 Kbps
Width : 1 920 pixels
Height : 1 080 pixels
Display aspect ratio : 16:9
Frame rate : 25.000 fps
Color space : YUV
Chroma subsampling : 4:2:0
Bit depth : 8 bits
Scan type : MBAFF
Bits/(Pixel*Frame) : 0.152
Stream size : 2.49 GiB (93%)
Color primaries : BT.709
Transfer characteristics : BT.709
Matrix coefficients : BT.709

Audio
ID : 902 (0x386)
Menu ID : 1029 (0x405)
Format : MPEG Audio
Format version : Version 1
Format profile : Layer 2
Codec ID : 3
Duration : 45mn 12s
Bit rate mode : Constant
Bit rate : 192 Kbps
Channel(s) : 2 channels
Sampling rate : 48.0 KHz
Compression mode : Lossy
Stream size : 62.1 MiB (2%)
Language : Russian

pb.wtf



Скачать Ультиматум через торрент http://pic1.kartinco.top/images/10/ep615.jpg Скачать фильм Ультиматум через торрент бесплантно в хорошем качестве Описание: Главный герой сериала «Ультиматум» — Сергей Ярохин (старший следователь убойного отдела). Принципиальный и несгибаемый. Живущий ... 9.2 10 11
Info! Золотая раздача, скачанное не засчитывается.
Торрент: Зарегистрирован [2015-03-27 23:17] · скачан: 192 раз
Статус: √ проверено
Размер: 10.75 GB
Как cкачать? Как скачать Ультиматум через торрент | qTorrent

% Раздел Тема Автор DL S | L
Наши сериалы [ 2.13 GB ] Ультиматум [2015 SATRip] Оригинал Бумер Скачать
1 | 0

28-11-2019 20:33  

Отключить всю рекламу на сайте

28-03-2015 06:44 Ультиматум Скачать торрент  

Повар с пистолетом! Как он и мечтал в "Кухне" :rofle:pb.wtf



    Дорогой пользователь! Огромная просьба, поблагодарите релизера, оцените раздачу и оставьте свои комментарий, если Вы скачали Ультиматум через торрент бесплатно! Внесите свою лепту в развитие PiratBit!
    Комментировать посты могут только пользователи прошедшие не сложную регистрацию
    Показать сообщения:    

    Ультиматум через торрент
    Скачать бесплатно Ультиматум
    Ультиматум скачать торрент
    Ультиматум смотреть онлайн
    Cкачать фильм Ультиматум бесплатно
    Ультиматум скачать торрент в хорошем качестве
    Ультиматум смотреть онлайн бесплатно в хорошем качестве


    Вы не можете начинать темы
    Вы не можете отвечать на сообщения
    Вы не можете редактировать свои сообщения
    Вы не можете удалять свои сообщения
    Вы не можете голосовать в опросах
    Вы не можете прикреплять файлы к сообщениям
    Вы можете скачивать файлы