Ссылка на приватное зеркало нашего сайта всего за 1$. Внимание количество ограничено!!!

2 сезон

iTunes

1 сезон

1

2 сезон

2 сезон

iTunes

1 сезон

RePack

30

Ultimate

ВАЖНО

ИГРА 18+

pack

RePack

MK11
pack

Забери бонус

RePack

jed

!!Акция!!

Alien_Rage

RePack

fifa19

RePack

Assassins Creed: Odyssey

RePack

NEED FOR SPEED™ PAYBACK

4 сезон

9 сезон

Бесстыжие 9 сезон

Все сериалы

все сериалы на PB.wtf

RePack

FAR CRY 5
  

Одуревшие / Loaded (Chris Zonnas) [2015, США, драма, комедия, WEB-DLRip) VO [Andi] pb.wtf

Одуревшие через торрент pb.wtf

Размер: 1.37 GB | Добавлен: 5 лет 7 мес. назад | Торрент скачан:248 раз
Скачать  

29-03-2015 03:29 Одуревшие Скачать торрент  

Одуревшие / Loaded
«Кое-какой багаж Вы не можете потерять»


  • Год выпуска: 2015
  • Страна: США
  • Жанр: драма, комедия
  • Продолжительность: 01:30:33
  • Перевод: Любительский (одноголосый) [Andi], перевод [М.Васильев]

  • Режиссер: Chris Zonnas
  • В ролях:

    Патрик Флюгер (Ethan), Кумэйл Нанджиани (Raza), Эндрю В. Уолкер (Alex), Александра Холден (April), Роберт Р. Шафер (Mechanic), Майкл Шамус Уайлз (Sherriff), Натали Дистлер (Allison), Рия Рэй (Shireen), Кортни Тейлор (Hooker), Кевин Фрай (Trucker), Донна Пьерони (Adele), Фредерик Лоуренс (Bartender)

  • Описание:
    Трое школьных друзей воссоединяются для неожиданной поездки. Вынужденные провести вместе несколько изнурительных дней, они могут наладить свои взаимоотношения, если только не поубивают друг друга раньше...
  • Рейтинг:



  • Качество: WEB-DLRip
  • Формат: :AVI
  • Видео кодек: XviD
  • Аудио кодек: AC3
  • Видео: 720x400 (16:9), 1766 kbps, 23,976 fps, 0,256 bpp
  • Аудио №1: Русский 2.0 / 48 kHz / 192 kbps / 16 bit
  • Аудио №2: Английский 2.0 / 48 kHz / 192 kbps / 16 bit
  • Релиз от: GEKADOL

    Код:

    General
    Complete name                            : F:\Loaded.2015.L1.WEB-DLRip.avi
    Format                                   : AVI
    Format/Info                              : Audio Video Interleave
    File size                                : 1.37 GiB
    Duration                                 : 1h 30mn
    Overall bit rate                         : 2 165 Kbps
    Writing application                      : VirtualDubMod 1.5.10.3 | www.virtualdub-fr.org || (build 2550/release)
    Writing library                          : VirtualDubMod build 2550/release

    Video
    ID                                       : 0
    Format                                   : MPEG-4 Visual
    Format profile                           : Advanced Simple@L5
    Format settings, BVOP                    : 1
    Format settings, QPel                    : No
    Format settings, GMC                     : No warppoints
    Format settings, Matrix                  : Custom
    Codec ID                                 : XVID
    Codec ID/Hint                            : XviD
    Duration                                 : 1h 30mn
    Bit rate                                 : 1 766 Kbps
    Width                                    : 720 pixels
    Height                                   : 400 pixels
    Display aspect ratio                     : 16:9
    Frame rate                               : 23.976 fps
    Color space                              : YUV
    Chroma subsampling                       : 4:2:0
    Bit depth                                : 8 bits
    Scan type                                : Progressive
    Compression mode                         : Lossy
    Bits/(Pixel*Frame)                       : 0.256
    Stream size                              : 1.12 GiB (82%)
    Writing library                          : XviD 73

    Audio #1
    ID                                       : 1
    Format                                   : AC-3
    Format/Info                              : Audio Coding 3
    Mode extension                           : CM (complete main)
    Codec ID                                 : 2000
    Duration                                 : 1h 30mn
    Bit rate mode                            : Constant
    Bit rate                                 : 192 Kbps
    Channel(s)                               : 2 channels
    Channel positions                        : Front: L R
    Sampling rate                            : 48.0 KHz
    Bit depth                                : 16 bits
    Compression mode                         : Lossy
    Stream size                              : 124 MiB (9%)
    Alignment                                : Split accross interleaves
    Interleave, duration                     : 42 ms (1.00 video frame)
    Interleave, preload duration             : 500 ms

    Audio #2
    ID                                       : 2
    Format                                   : AC-3
    Format/Info                              : Audio Coding 3
    Mode extension                           : CM (complete main)
    Codec ID                                 : 2000
    Duration                                 : 1h 30mn
    Bit rate mode                            : Constant
    Bit rate                                 : 192 Kbps
    Channel(s)                               : 2 channels
    Channel positions                        : Front: L R
    Sampling rate                            : 48.0 KHz
    Bit depth                                : 16 bits
    Compression mode                         : Lossy
    Stream size                              : 124 MiB (9%)
    Alignment                                : Split accross interleaves
    Interleave, duration                     : 42 ms (1.00 video frame)
    Interleave, preload duration             : 500 ms




    Скриншоты:



    pb.wtf



  • Скачать Одуревшие через торрент http://i66.fastpic.ru/big/2015/0329/37/2b8d220d9a83903dd70c9c9d56dd0c37.jpg Скачать фильм Одуревшие через торрент бесплантно в хорошем качестве Описание: Трое школьных друзей воссоединяются для неожиданной поездки. Вынужденные провести вместе несколько изнурительных дней, они могут ... 8.6 10 7
    Торрент: Зарегистрирован [2015-03-29 03:29] · скачан: 248 раз
    Статус: T временная
    Размер: 1.37 GB
    Как cкачать? Как скачать Одуревшие через торрент | qTorrent

    28-11-2019 20:33  

    Отключить всю рекламу на сайте

      Дорогой пользователь! Огромная просьба, поблагодарите релизера, оцените раздачу и оставьте свои комментарий, если Вы скачали Одуревшие через торрент бесплатно! Внесите свою лепту в развитие PiratBit!
      Комментировать посты могут только пользователи прошедшие не сложную регистрацию
      Показать сообщения:    

      Одуревшие через торрент
      Скачать бесплатно Одуревшие
      Одуревшие скачать торрент
      Одуревшие смотреть онлайн
      Cкачать фильм Одуревшие бесплатно
      Одуревшие скачать торрент в хорошем качестве
      Одуревшие смотреть онлайн бесплатно в хорошем качестве


      Вы не можете начинать темы
      Вы не можете отвечать на сообщения
      Вы не можете редактировать свои сообщения
      Вы не можете удалять свои сообщения
      Вы не можете голосовать в опросах
      Вы не можете прикреплять файлы к сообщениям
      Вы можете скачивать файлы