Ссылка на приватное зеркало нашего сайта всего за 1$. Внимание количество ограничено!!!

2 сезон

iTunes

1 сезон

1

iTunes

iTunes

iTunes

1 сезон

RePack

30

ИГРА 18+

pack

ВАЖНО

!!Акция!!

Alien_RageХит недели

RePack

MK11
pack

Забери бонус

RePack

jed

!!Акция!!

Alien_Rage

RePack

fifa19

RePack

Assassins Creed: Odyssey

RePack

NEED FOR SPEED™ PAYBACK

4 сезон

9 сезон

Бесстыжие 9 сезон

Все сериалы

все сериалы на PB.wtf

RePack

FAR CRY 5
  

Мамочка / Mommy (Ксавье Долан ) [2014, драма, BDRip 720p, Дубляж] iTunes pb.wtf

Мамочка через торрент pb.wtf

Размер: 8.1 GB | Добавлен: 5 лет 6 мес. назад | Торрент скачан:108 раз
Скачать  

29-03-2015 04:56 Мамочка Скачать торрент  


Мамочка / Mommy
«Мы с тобой ближе, чем мужчина и женщина»

ИНФОРМАЦИЯ:
Год выпуска:2014
Страна: Канада
Жанр: драма
Продолжительность: 02:18:27
Перевод: Дубляж - [Лицензия / iTunes]
Субтитры: French, английские,
Режиссер: Ксавье Долан

В Ролях:


Энн Дорваль (Diane «Die» Després), Антуан-Оливье Пилон (Steve O'Connor Després), Сюзанн Клеман (Kyla), Патрик Уард (Paul), Александр Гойетт (Patrick), Мишель Литюак (Directrice du centre), Изабель Нелисс (Fille de Kyla), Пьер-Ив Кардинал (Gardien de sécurité #1), Вивиан Паскаль (Marthe), Натали Амель-Руа (Natacha), Винсент Фафард (Joueur de pool)

ОПИСАНИЕ:
Яркая и взбалмошная вдова Диана забирает из интерната сына-подростка и полна решимости начать новую жизнь. Со Стивом они бы жили душа в душу, но вспышки гнева импульсивного сына то и дело подрывают шаткое равновесие в семье. На подмогу приходит скромная заикающаяся соседка Кайла, и в доме на время воцаряется идиллия, но как долго это продлится?

  • Мировая премьера:22 мая 2014

    ТЕХ.ДАННЫЕ:
    Качество: BDRip 720p
    Формат: MKV
    Видео кодек: AVC
    Аудио кодек: AC3
    Видео: AVC, 1280x720 (16:9), 7180 kbps, 23,976 fps, 0,325 bpp
    Аудио №1: русский / AC3 / 5.1 / 48 kHz / 384 kbps / 16 bit ||
    Аудио №2: французский / AC3 / 5.1 / 48 kHz / 640 kbps / 16 bit
    Навигация по главам: есть



    Код:

    General
    Unique ID                                : 254315605799363994469153245326308177075 (0xBF5367700B2039EFBF29CE0EAC8A74B3)
    Complete name                            : D:\Торенты\Мамочка.720p. Ton.mkv
    Format                                   : Matroska
    Format version                           : Version 4 / Version 2
    File size                                : 8.10 GiB
    Duration                                 : 2h 18mn
    Overall bit rate                         : 8 371 Kbps
    Movie name                               : Мамочка. (Tonik)
    Encoded date                             : UTC 2015-03-26 15:35:35
    Writing application                      : mkvmerge v7.1.0 ('Good Love') 64bit built on Jul 27 2014 13:06:55
    Writing library                          : libebml v1.3.0 + libmatroska v1.4.1

    Video
    ID                                       : 1
    Format                                   : AVC
    Format/Info                              : Advanced Video Codec
    Format profile                           : High@L4.1
    Format settings, CABAC                   : Yes
    Format settings, ReFrames                : 9 frames
    Codec ID                                 : V_MPEG4/ISO/AVC
    Duration                                 : 2h 18mn
    Bit rate                                 : 7 180 Kbps
    Width                                    : 1 280 pixels
    Height                                   : 720 pixels
    Display aspect ratio                     : 16:9
    Frame rate                               : 23.976 fps
    Color space                              : YUV
    Chroma subsampling                       : 4:2:0
    Bit depth                                : 8 bits
    Scan type                                : Progressive
    Bits/(Pixel*Frame)                       : 0.325
    Stream size                              : 6.94 GiB (86%)
    Writing library                          : x264 core 146 r2538kMod 121396c
    Encoding settings                        : cabac=1 / ref=9 / deblock=1:-3:-3 / analyse=0x3:0x133 / me=umh / subme=10 / psy=1 / fade_compensate=0.00 / psy_rd=1.08:0.00 / mixed_ref=1 / me_range=24 / chroma_me=1 / trellis=2 / 8x8dct=1 / cqm=0 / deadzone=21,11 / fast_pskip=1 / chroma_qp_offset=-2 / threads=24 / lookahead_threads=5 / sliced_threads=0 / nr=0 / decimate=1 / interlaced=0 / bluray_compat=0 / constrained_intra=0 / fgo=0 / bframes=11 / b_pyramid=2 / b_adapt=2 / b_bias=0 / direct=3 / weightb=1 / open_gop=0 / weightp=2 / keyint=250 / keyint_min=23 / scenecut=40 / intra_refresh=0 / rc=crf / mbtree=0 / crf=16.3000 / qcomp=0.65 / qpmin=0 / qpmax=69 / qpstep=4 / ip_ratio=1.30 / pb_ratio=1.20 / aq=3:0.68
    Language                                 : English
    Default                                  : Yes
    Forced                                   : No
    Matrix coefficients                      : BT.709-5, BT.1361, IEC 61966-2-4 709, SMPTE RP177

    Audio #1
    ID                                       : 2
    Format                                   : AC-3
    Format/Info                              : Audio Coding 3
    Mode extension                           : CM (complete main)
    Codec ID                                 : A_AC3
    Duration                                 : 2h 18mn
    Bit rate mode                            : Constant
    Bit rate                                 : 384 Kbps
    Channel(s)                               : 6 channels
    Channel positions                        : Front: L C R, Side: L R, LFE
    Sampling rate                            : 48.0 KHz
    Bit depth                                : 16 bits
    Compression mode                         : Lossy
    Stream size                              : 380 MiB (5%)
    Language                                 : Russian
    Default                                  : Yes
    Forced                                   : No

    Audio #2
    ID                                       : 3
    Format                                   : AC-3
    Format/Info                              : Audio Coding 3
    Mode extension                           : CM (complete main)
    Codec ID                                 : A_AC3
    Duration                                 : 2h 18mn
    Bit rate mode                            : Constant
    Bit rate                                 : 640 Kbps
    Channel(s)                               : 6 channels
    Channel positions                        : Front: L C R, Side: L R, LFE
    Sampling rate                            : 48.0 KHz
    Bit depth                                : 16 bits
    Compression mode                         : Lossy
    Stream size                              : 634 MiB (8%)
    Language                                 : French
    Default                                  : No
    Forced                                   : No

    Text #1
    ID                                       : 4
    Format                                   : UTF-8
    Codec ID                                 : S_TEXT/UTF8
    Codec ID/Info                            : UTF-8 Plain Text
    Language                                 : French
    Default                                  : No
    Forced                                   : No

    Text #2
    ID                                       : 5
    Format                                   : UTF-8
    Codec ID                                 : S_TEXT/UTF8
    Codec ID/Info                            : UTF-8 Plain Text
    Language                                 : English
    Default                                  : No
    Forced                                   : No

    Menu
    00:00:00.000                             : en:00:00:00.000
    00:02:48.585                             : en:00:02:48.585
    00:09:27.984                             : en:00:09:27.984
    00:16:09.260                             : en:00:16:09.260
    00:22:55.291                             : en:00:22:55.291
    00:28:28.081                             : en:00:28:28.081
    00:30:56.188                             : en:00:30:56.188
    00:40:24.881                             : en:00:40:24.881
    00:51:45.394                             : en:00:51:45.394
    01:00:50.313                             : en:01:00:50.313
    01:06:28.693                             : en:01:06:28.693
    01:15:09.630                             : en:01:15:09.630
    01:20:47.760                             : en:01:20:47.760
    01:26:29.393                             : en:01:26:29.393
    01:39:03.855                             : en:01:39:03.855
    01:44:22.715                             : en:01:44:22.715
    01:53:24.923                             : en:01:53:24.923
    02:00:13.873                             : en:02:00:13.873
    02:04:48.564                             : en:02:04:48.564
    02:13:21.660                             : en:02:13:21.660

    Скриншоты:


    © Оформление by Ворон
    pb.wtf



  • Скачать Мамочка через торрент http://pic.kartinco.top/images/6/ordi9.jpg Скачать фильм Мамочка через торрент бесплантно в хорошем качестве Е:Яркая и взбалмошная вдова Диана забирает из интерната сына-подростка и полна решимости начать новую жизнь. Со Стивом они бы жили душа в ... 7.7 10 7
    Торрент: Зарегистрирован [2015-03-29 04:56] · скачан: 108 раз
    Статус: √ проверено
    Размер: 8.1 GB
    Как cкачать? Как скачать Мамочка через торрент | qTorrent

    % Раздел Тема Автор DL S | L
    Фильмы 2014 [DVDrip, WEB-DLRip, HDrip] [ 2.17 GB ] Мамочка / Mommy [2014 HDRip ] Ворон Скачать
    1 | 0
    Фильмы 2014 [DVDrip, WEB-DLRip, HDrip] [ 1.95 GB ] Мамочка / Mommy [2014 HDRip-AVC ] Ворон Скачать
    1 | 0
    Фильмы [HD 720p, 1080p] (Хороший звук DUB, MVO) [ 14.17 GB ] Мамочка / Mommy [2014 BDRip 1080p ] Ворон Скачать
    1 | 0

    28-11-2019 20:33  

    Отключить всю рекламу на сайте

    29-03-2015 13:54 Мамочка Скачать торрент  

    болтовня весь фильм.не о чём.pb.wtf



      Дорогой пользователь! Огромная просьба, поблагодарите релизера, оцените раздачу и оставьте свои комментарий, если Вы скачали Мамочка через торрент бесплатно! Внесите свою лепту в развитие PiratBit!
      Комментировать посты могут только пользователи прошедшие не сложную регистрацию
      Показать сообщения:    

      Мамочка через торрент
      Скачать бесплатно Мамочка
      Мамочка скачать торрент
      Мамочка смотреть онлайн
      Cкачать фильм Мамочка бесплатно
      Мамочка скачать торрент в хорошем качестве
      Мамочка смотреть онлайн бесплатно в хорошем качестве


      Вы не можете начинать темы
      Вы не можете отвечать на сообщения
      Вы не можете редактировать свои сообщения
      Вы не можете удалять свои сообщения
      Вы не можете голосовать в опросах
      Вы не можете прикреплять файлы к сообщениям
      Вы можете скачивать файлы