Присоединяйтесь к нам в Telegram!, здесь всегда актуальный адрес сайта, оперативная поддержка и многое другое!!

>

5.9

iTunes

7.4

iTunes

9.4

1 сезон

1

7.4

2 сезон

7.2

iTunes

7.3

1 сезон

13

6.1

iTunes

8.3

GOG

30

ULTIMATE

pack

9.9

Лицензия

ВАЖНО

ИГРА 18+

pack

7.3

RePack

MK11

7.7

RePack

jed

7.8

RePack

fifa19

8.5

RePack

RDR2

RePack

NEED FOR SPEED™ PAYBACK

5 сезон

9 сезон

Бесстыжие 9 сезон

Все сериалы

все сериалы на PB.wtf

RePack

FAR CRY 5

Anonymous, доброе утро, мы катастрофически не успеваем собрать деньги на оплату серверов, помогите нам пожалуйста 5,10,15р., для нас важна любая помощь . В качестве благодарности мы отключим Вам всю рекламу на сайте (укажите свой ник в строку Ваше имя)!

×
  
Magnet ссылка

GAZEBO - 13 клипов [TVRip] / GAZEBO [2007 г., TVRip, Оригинал] pb.wtf

GAZEBO - 13 клипов через торрент pb.wtf

Размер: 981 MB | Добавлен: 6 лет 7 мес. назад | Торрент скачан:49 раз
Смотреть онлайн GAZEBO - 13 клипов | Скачать    Ребята, помогите собрать деньги на оплату серверов!!!

29-03-2015 07:13 GAZEBO - 13 клипов Скачать торрент  

GAZEBO
Год выпуска: 2007
Страна: Италия
Перевод: Оригинал

В ролях: Gazebo (Поль Маццолини)

Описание: Видео материалы о популярном итальянском певце 80-х, переживающем сейчас вторую молодость и планирующе
Здесь есть и клипы, и live съемки, телевизионные и любительские. СЪемки разных лет, кстати.
В отличии от множества шедевральных песен Газибо, видео крутится в основном среди его самых хитов, сделавших его всемирно известным - I like Chopin, Masterpiece, Lunatic .
- Masterpiece - клип
- I like Chopin - клип - самый известный клип Gazebo
- Telephone Mama - клип
- I like Chopin - телесъемка, где певец играет на рояле
- I like Chopin - другая телесъемка где певец прогоняет пианиста
- Lunatic - клип
- Love in your eyes - телесъемка
- Masterpiece + I like Chopin - любит съемка
- техно-римейк со слайдами под музыку Gazebo
- Masterpiece - любит съемка
- I like Chopin - съемка из Санремо
- I like Chopin - с еще какого-то конкурса
Качество: TVRip
Формат: AVI
Видео кодек: MPEG2
Аудио кодек: MPEG Audio
Видео: MPEG2, Video 720x576 (4:3), 25fps, 8000kbps
Аудио: MPEG Audio, 48000Hz, stereo, 384kbps
Релиз от: vamm
Скриншоты
скриншот   скриншот   скриншот   скриншот   скриншот  




General
Complete name : E:\4003\video\Chopin_new_jork.mpg
Format : MPEG-PS
File size : 99.5 MiB
Duration : 5mn 46s
Overall bit rate mode : Variable
Overall bit rate : 2 410 Kbps
Writing library : encoded by TMPGEnc (ver. 2.59.47.155)

Video
ID : 224 (0xE0)
Format : MPEG Video
Format version : Version 2
Format profile : Main@Main
Format settings, BVOP : Yes
Format settings, Matrix : Custom
Format settings, GOP : M=3, N=13
Duration : 5mn 46s
Bit rate mode : Variable
Bit rate : 1 978 Kbps
Maximum bit rate : 8 000 Kbps
Width : 720 pixels
Height : 576 pixels
Display aspect ratio : 4:3
Frame rate : 25.000 fps
Standard : PAL
Color space : YUV
Chroma subsampling : 4:2:0
Bit depth : 8 bits
Scan type : Progressive
Compression mode : Lossy
Bits/(Pixel*Frame) : 0.191
Stream size : 81.6 MiB (82%)
Alignment : encoded by TMPGEnc (ver. 2.59.47.155)
Title : TMPGEnc
Writing application : 2.59.47.155
Writing library : TMPGEnc 2.59.47.155
Color primaries : BT.601 PAL
Transfer characteristics : BT.470 System B, BT.470 System G
Matrix coefficients : FCC 73.682

Audio
ID : 192 (0xC0)
Format : MPEG Audio
Format version : Version 1
Format profile : Layer 2
Duration : 5mn 46s
Bit rate mode : Constant
Bit rate : 384 Kbps
Channel(s) : 2 channels
Sampling rate : 48.0 KHz
Compression mode : Lossy
Stream size : 15.9 MiB (16%)

pb.wtf



Скачать GAZEBO - 13 клипов через торрент https://pic1.kartinco.top/images/10/jxnhz.jpg Скачать, смотреть онлайн GAZEBO - 13 клипов [TVRip] бесплантно в хорошем качестве Описание: Видео материалы о популярном итальянском певце 80-х, переживающем сейчас вторую молодость и планирующе Здесь есть и клипы, и ... 9.6 10 5
Info! Золотая раздача, скачанное не засчитывается.
Торрент: Зарегистрирован [2015-03-29 07:13] · скачан: 49 раз
Статус: √ проверено
Размер: 981 MB
Как cкачать? Как скачать GAZEBO - 13 клипов через торрент | UTorrent



Последний раз редактировалось: lug30 (2015-03-29 13:11), всего редактировалось 1 раз

28-11-2019 20:33  

Отключить всю рекламу на сайте

29-03-2015 07:14 GAZEBO - 13 клипов Скачать торрент  

еще не оформил,вызвали срочно на работу,приеду сварганюpb.wtf



    Дорогой пользователь! Огромная просьба, поблагодарите релизера, оцените раздачу и оставьте свои комментарий, если Вы скачали GAZEBO - 13 клипов через торрент бесплатно!
    Комментировать посты могут только пользователи прошедшие не сложную регистрацию
    Показать сообщения:    

    GAZEBO - 13 клипов через торрент
    Скачать бесплатно GAZEBO - 13 клипов
    GAZEBO - 13 клипов скачать торрент
    GAZEBO - 13 клипов смотреть онлайн
    Cкачать фильм GAZEBO - 13 клипов бесплатно
    GAZEBO - 13 клипов скачать торрент в хорошем качестве
    GAZEBO - 13 клипов смотреть онлайн бесплатно в хорошем качестве


    Вы не можете начинать темы
    Вы не можете отвечать на сообщения
    Вы не можете редактировать свои сообщения
    Вы не можете удалять свои сообщения
    Вы не можете голосовать в опросах
    Вы не можете прикреплять файлы к сообщениям
    Вы можете скачивать файлы