2 сезон

iTunes

1 сезон

1

iTunes

iTunes

iTunes

1 сезон

RePack

30

ИГРА 18+

pack

ВАЖНО

!!Акция!!

Alien_RageХит недели

RePack

MK11
pack

Забери бонус

RePack

jed

!!Акция!!

Alien_Rage

RePack

fifa19

RePack

Assassins Creed: Odyssey

RePack

NEED FOR SPEED™ PAYBACK

4 сезон

9 сезон

Бесстыжие 9 сезон

Все сериалы

все сериалы на PB.wtf

RePack

FAR CRY 5
  

Семейный бизнес / 4 Серия (Алексей Чистиков) [2014, Россия, комедия, SATRip) pb.wtf

Семейный бизнес через торрент pb.wtf

Размер: 300 MB | Добавлен: 6 лет 1 мес. назад | Торрент скачан:135 раз
Скачать  

10-09-2014 11:39 Семейный бизнес Скачать торрент  

Семейный бизнес


  • Год выпуска: 2014
  • Страна: Россия
  • Жанр: комедия
  • Продолжительность: 00:20:37
  • Перевод: Не требуется

  • Режиссер: Алексей Чистиков
  • В ролях:

    Владимир Яглыч, Анна Старшенбаум, Сергей Походаев, Семен Трескунов, Андрей Рудневский, Артём Башенин, Софья Грачёва, Юрий Тарасов, Михаил Богдасаров, Максим Пинскер

  • Описание:
    Если бы Илье Пономареву пришлось отвечать на такой простой тест, то он, несомненно, выбрал бы вариант А. Ему не нужна семья, ему нужны деньги. В погоне за миллионами он начинает то один бизнес, то другой, вот только не всегда удачно. После очередного краха, он должен ОЧЕНЬ много денег ОЧЕНЬ серьезным людям. Загнанный в угол Илья соглашается заключить со службой опеки договор «Приемной семьи» и взять на воспитание «несколько детей». Для него не важно, что это за дети, важно, чтобы деньги, выделяемые на воспитание, покрывали долги. Но даже он не ожидал, что «приемышей» окажется целых ПЯТЬ! Да еще каких! В «семью» Ильи попадают: хулиган, инвалид на коляске, близняшки, которых нельзя разлучать, и мальчик, способный в любой момент устроить пожар или наводнение. Но в любом случае вкладывать душу в свое «новое предприятие» Илья не собирается — ничего личного, только бизнес.
  • Рейтинг:



  • Качество: SATRip
  • Формат: :AVI
  • Видео кодек: XviD
  • Аудио кодек: MP3
  • Видео: 720x400 (16:9), 1497 kbps, 25 fps, 0,208 bpp
  • Аудио: 2.0 / 48 kHz / 128 kbps /
  • Релиз от: GEKADOL
    Не нашли то, что искали? Для вас "Стол заказов" "Жмём сюда!"

    Код:

    General
    Complete name                            : I:\Семейный бизнес\Semejnyj.biznes.04.SATRip.avi
    Format                                   : AVI
    Format/Info                              : Audio Video Interleave
    File size                                : 241 MiB
    Duration                                 : 20mn 37s
    Overall bit rate                         : 1 635 Kbps
    Writing application                      : VirtualDubMod 1.5.10.3 | www.virtualdub-fr.org || (build 2550/release)
    Writing library                          : VirtualDubMod build 2550/release

    Video
    ID                                       : 0
    Format                                   : MPEG-4 Visual
    Format profile                           : Advanced Simple@L5
    Format settings, BVOP                    : 2
    Format settings, QPel                    : No
    Format settings, GMC                     : No warppoints
    Format settings, Matrix                  : Default (H.263)
    Codec ID                                 : XVID
    Codec ID/Hint                            : XviD
    Duration                                 : 20mn 37s
    Bit rate                                 : 1 497 Kbps
    Width                                    : 720 pixels
    Height                                   : 400 pixels
    Display aspect ratio                     : 16:9
    Frame rate                               : 25.000 fps
    Color space                              : YUV
    Chroma subsampling                       : 4:2:0
    Bit depth                                : 8 bits
    Scan type                                : Progressive
    Compression mode                         : Lossy
    Bits/(Pixel*Frame)                       : 0.208
    Stream size                              : 221 MiB (92%)
    Writing library                          : XviD 1.2.1 (UTC 2008-12-04)

    Audio
    ID                                       : 1
    Format                                   : MPEG Audio
    Format version                           : Version 1
    Format profile                           : Layer 3
    Mode                                     : Joint stereo
    Codec ID                                 : 55
    Codec ID/Hint                            : MP3
    Duration                                 : 20mn 37s
    Bit rate mode                            : Constant
    Bit rate                                 : 128 Kbps
    Channel(s)                               : 2 channels
    Sampling rate                            : 48.0 KHz
    Compression mode                         : Lossy
    Stream size                              : 18.9 MiB (8%)
    Alignment                                : Aligned on interleaves
    Interleave, duration                     : 40 ms (1.00 video frame)
    Interleave, preload duration             : 504 ms
    Writing library                          : LAME3.99r
    Encoding settings                        : -m j -V 4 -q 9 -lowpass 17 -b 128


    Скриншоты:
    скриншот   скриншот   скриншот   скриншот   скриншот   скриншот  


    pb.wtf



  • Скачать Семейный бизнес через торрент http://i67.fastpic.ru/big/2014/0908/56/9295880ff4c8b15e79b99a4e70af7e56.jpg Скачать фильм Семейный бизнес через торрент бесплантно в хорошем качестве Описание: Если бы Илье Пономареву пришлось отвечать на такой простой тест, то он, несомненно, выбрал бы вариант А. Ему не нужна семья, ему ... 10 10 6
    Торрент: Зарегистрирован [2014-09-10 11:39] · скачан: 135 раз
    Статус: √ проверено
    Размер: 300 MB
    Как cкачать? Как скачать Семейный бизнес через торрент | qTorrent

    28-11-2019 20:33  

    Отключить всю рекламу на сайте

      Дорогой пользователь! Огромная просьба, поблагодарите релизера, оцените раздачу и оставьте свои комментарий, если Вы скачали Семейный бизнес через торрент бесплатно! Внесите свою лепту в развитие PiratBit!
      Комментировать посты могут только пользователи прошедшие не сложную регистрацию
      Показать сообщения:    

      Семейный бизнес через торрент
      Скачать бесплатно Семейный бизнес
      Семейный бизнес скачать торрент
      Семейный бизнес смотреть онлайн
      Cкачать фильм Семейный бизнес бесплатно
      Семейный бизнес скачать торрент в хорошем качестве
      Семейный бизнес смотреть онлайн бесплатно в хорошем качестве


      Вы не можете начинать темы
      Вы не можете отвечать на сообщения
      Вы не можете редактировать свои сообщения
      Вы не можете удалять свои сообщения
      Вы не можете голосовать в опросах
      Вы не можете прикреплять файлы к сообщениям
      Вы можете скачивать файлы