Мега распродажа FORZA HORIZON 4 ULTIMATE+ВСЕ DLC+ОНЛАЙН всего за 499р. 349 руб. (супер цена). Внимание количество ограничено!!!

iTunes

1+1

iTunes

мы

iTunes

1

1 сезон

Чернобыль

1 сезон

Ральф против интернета

Лицензия

ПШазам

8 сезон

Игра престолов

Лицензия

30
pack

ВАЖНО

!!Акция!!

Alien_RageХит недели

RePack

Resident Evil 21

ИГРА 18+

pack

RePack

Metro:Exodus

!!Акция!!

Alien_Rage

RePack

fifa19

RePack

Assassins Creed: Odyssey

RePack

NEED FOR SPEED™ PAYBACK

3 сезон

9 сезон

Бесстыжие 9 сезон

Все сериалы

все сериалы на PB.wtf

RePack

FAR CRY 5
Ребята, катастрофически не хватает 2730р. для оплаты серверов за ИЮНЬ (всвязи с блокировками трафик упал в 3 раза), 1-2р., выручайте.
  

Мелочи жизни / Les choses de la vie (Клод Соте) [1970, драма, мелодрама, BDRip-AVC] 2 x MVO pb.wtf

Мелочи жизни через торрент pb.wtf

Размер: 2.24 GB | Добавлен: 4 года 3 мес. назад | Торрент скачан:22 раза
Скачать  

29-03-2015 10:41 Мелочи жизни Скачать торрент  

Мелочи жизни / Les choses de la vie

Год выпуска: 1970
Страна: Франция, Италия, Швейцария
Жанр: драма, мелодрама
Продолжительность: 01:24:51
Перевод: профессиональный многоголосый
Субтитры: нет

Режиссёр: Клод Соте

В ролях: Мишель Пикколи, Роми Шнайдер, Леа Массари, Жерар Лартиго, Жан Буиз, Боби Лапуэнт, Эрве Санд, Жак Ришар, Бетти Беккерс, Доминик Зарди, Габриель Дулсе, Роже Крузе, Анри Нассье, Клод Конфорте, Джерри Брауер, Жан Грас, Мари-Пьер Кэйси, Марселла Арнольд, Жан-Пьер Золя, Макс Амиль

Описание: Пьер — респектабельный архитектор средних лет. Он расстался со своей красавицей-женой Катрин и живёт теперь с очаровательной любовницей Элен. Жизнь удалась? Или дала трещину? Что делать: радоваться или грустить? Пьер не может понять. Он очень нерешителен. Хотя, увидев его, Вы подумаете: "Вот — настоящий мужчина". Также думала и Элен. Но однажды вечером она сказала: "Я устала тебя любить"... Сценарий по произведению Поля Гимара.



Качество: BDRip-AVC Сравнение с исходником
Формат: MKV
Видео кодек: H.264
Аудио кодек: AC3
Видео: 3128 Кбит/с, 956x576, 24 кадра/с, 0.237 bpp
Аудио 1: русский, AC3, 192 kbps, 2 ch, 48 kHz [профессиональный многоголосый, вариант 1]
Аудио 2: русский, AC3, 192 kbps, 2 ch, 48 kHz [профессиональный многоголосый, вариант 2]
Аудио 3: французский, AC3, 192 kbps, 2 ch, 48 kHz [оригинал]
Каннский кинофестиваль, 1970 год
Номинации (1):
Золотая пальмовая ветвь
frame I:692 Avg QP:19.24 size: 55044
frame P:22444 Avg QP:20.34 size: 29960
frame B:99045 Avg QP:22.46 size: 13390

Общее
Уникальный идентификатор : 187356825163072657720470186481633617904 (0x8CF39CAB28DCF340A0FD0E5189D667F0)
Полное имя : D:VideoMelochi gizni.1970.BDRip.AVC.mkv
Формат : Matroska
Версия формата : Version 4 / Version 2
Размер файла : 2,24 Гбайт
Продолжительность : 1 ч. 24 м.
Общий поток : 3779 Кбит/сек
Дата кодирования : UTC 2015-03-28 18:16:19
Программа кодирования : mkvmerge v7.7.0 ('Six Voices') 64bit built on Feb 28 2015 23:39:33
Библиотека кодирования : libebml v1.3.1 + libmatroska v1.4.2
DURATION : 01:24:51.008000000
NUMBER_OF_FRAMES : 159094
NUMBER_OF_BYTES : 122184192
_STATISTICS_WRITING_APP : mkvmerge v7.7.0 ('Six Voices') 64bit built on Feb 28 2015 23:39:33
_STATISTICS_WRITING_DATE_UTC : 2015-03-28 18:16:19
_STATISTICS_TAGS : BPS DURATION NUMBER_OF_FRAMES NUMBER_OF_BYTES

Видео
Идентификатор : 1
Формат : AVC
Формат/Информация : Advanced Video Codec
Профиль формата : High@L4.1
Параметр CABAC формата : Да
Параметр ReFrames формата : 9 кадров
Идентификатор кодека : V_MPEG4/ISO/AVC
Продолжительность : 1 ч. 24 м.
Битрейт : 3128 Кбит/сек
Ширина : 956 пикселей
Высота : 576 пикселей
Соотношение сторон : 1,660
Режим частоты кадров : Постоянный
Частота кадров : 24,000 кадра/сек
Цветовое пространство : YUV
Субдискретизация насыщенности : 4:2:0
Битовая глубина : 8 бит
Тип развёртки : Прогрессивная
Бит/(Пиксели*Кадры) : 0.237
Размер потока : 1,85 Гбайт (83%)
Заголовок : BDRip -- STarankov
Библиотека кодирования : x264 core 142 r2431 ac76440
Настройки программы : cabac=1 / ref=9 / deblock=1:-1:-1 / analyse=0x3:0x113 / me=umh / subme=10 / psy=1 / psy_rd=1.00:0.15 / mixed_ref=1 / me_range=32 / chroma_me=1 / trellis=2 / 8x8dct=1 / cqm=0 / deadzone=21,11 / fast_pskip=1 / chroma_qp_offset=-3 / threads=6 / lookahead_threads=1 / sliced_threads=0 / nr=0 / decimate=1 / interlaced=0 / bluray_compat=0 / constrained_intra=0 / bframes=11 / b_pyramid=2 / b_adapt=2 / b_bias=0 / direct=3 / weightb=1 / open_gop=0 / weightp=2 / keyint=230 / keyint_min=23 / scenecut=40 / intra_refresh=0 / rc_lookahead=40 / rc=crf / mbtree=0 / crf=20.0 / qcomp=0.60 / qpmin=0 / qpmax=69 / qpstep=4 / vbv_maxrate=40000 / vbv_bufsize=50000 / crf_max=0.0 / nal_hrd=none / filler=0 / ip_ratio=1.40 / pb_ratio=1.30 / aq=1:1.00
Язык : French
Default : Да
Forced : Нет
DURATION : 01:24:50.875000000
NUMBER_OF_FRAMES : 122181
NUMBER_OF_BYTES : 2036763106
_STATISTICS_WRITING_APP : mkvmerge v7.7.0 ('Six Voices') 64bit built on Feb 28 2015 23:39:33
_STATISTICS_WRITING_DATE_UTC : 2015-03-28 18:16:19
_STATISTICS_TAGS : BPS DURATION NUMBER_OF_FRAMES NUMBER_OF_BYTES

Аудио #1
Идентификатор : 2
Формат : AC-3
Формат/Информация : Audio Coding 3
Расширение режима : CM (complete main)
Параметр Endianness формата : Big
Идентификатор кодека : A_AC3
Продолжительность : 1 ч. 24 м.
Вид битрейта : Постоянный
Битрейт : 192 Кбит/сек
Каналы : 2 канала
Расположение каналов : Front: L R
Частота : 48,0 КГц
Битовая глубина : 16 бит
Метод сжатия : С потерями
Размер потока : 117 Мбайт (5%)
Заголовок : MVO (вариант 1)
Язык : Russian
Default : Да
Forced : Нет

Аудио #2
Идентификатор : 3
Формат : AC-3
Формат/Информация : Audio Coding 3
Расширение режима : CM (complete main)
Параметр Endianness формата : Big
Идентификатор кодека : A_AC3
Продолжительность : 1 ч. 24 м.
Вид битрейта : Постоянный
Битрейт : 192 Кбит/сек
Каналы : 2 канала
Расположение каналов : Front: L R
Частота : 48,0 КГц
Битовая глубина : 16 бит
Метод сжатия : С потерями
Размер потока : 117 Мбайт (5%)
Заголовок : MVO (вариант 2)
Язык : Russian
Default : Нет
Forced : Нет

Аудио #3
Идентификатор : 4
Формат : AC-3
Формат/Информация : Audio Coding 3
Расширение режима : CM (complete main)
Параметр Endianness формата : Big
Идентификатор кодека : A_AC3
Продолжительность : 1 ч. 24 м.
Вид битрейта : Постоянный
Битрейт : 192 Кбит/сек
Каналы : 2 канала
Расположение каналов : Front: L R
Частота : 48,0 КГц
Битовая глубина : 16 бит
Метод сжатия : С потерями
Размер потока : 117 Мбайт (5%)
Заголовок : Original
Язык : French
Default : Нет
Forced : Нет
pb.wtf



Скачать Мелочи жизни через торрент http://i66.fastpic.ru/big/2015/0329/97/98b2cb3bb821f418bbf8a2bdcb6b2497.jpg Скачать фильм Мелочи жизни через торрент бесплантно в хорошем качестве Описание: Пьер — респектабельный архитектор средних лет. Он расстался со своей красавицей-женой Катрин и живёт теперь с очаровательной ... 10 10 1
Торрент: Зарегистрирован [2015-03-29 10:41] · скачан: 22 раз
Статус: √ проверено
Размер: 2.24 GB
Как cкачать? Как скачать Мелочи жизни через торрент | qTorrent

% Раздел Тема Автор DL S | L
Фильмы [HD 720p, 1080p] (Хороший звук DUB, MVO) [ 3.63 GB ] Мелочи жизни / Les choses de la vie [1970 BDRip 720p] 2 x MVO msltel Скачать
1 | 0


>> Регистрируемся здесь <<






Отзывы и комментарии о схеме читаем и пишем здесь: ---> Отзывы и комментарии о схеме

Новые благодарочки в телеграм довольных пользователей:
скриншот   скриншот   скриншот   скриншот   скриншот
    Дорогой пользователь! Огромная просьба, поблагодарите релизера, оцените раздачу и оставьте свои комментарий, если Вы скачали Мелочи жизни через торрент бесплатно! Внесите свою лепту в развитие PiratBit!
    Комментировать посты могут только пользователи прошедшие не сложную регистрацию
    Показать сообщения:    

    Мелочи жизни через торрент
    Скачать бесплатно Мелочи жизни
    Мелочи жизни скачать торрент
    Мелочи жизни смотреть онлайн
    Cкачать фильм Мелочи жизни бесплатно
    Мелочи жизни скачать торрент в хорошем качестве
    Мелочи жизни смотреть онлайн бесплатно в хорошем качестве


    Вы не можете начинать темы
    Вы не можете отвечать на сообщения
    Вы не можете редактировать свои сообщения
    Вы не можете удалять свои сообщения
    Вы не можете голосовать в опросах
    Вы не можете прикреплять файлы к сообщениям
    Вы можете скачивать файлы