Ссылка на приватное зеркало всего за 1$. Внимание количество ограничено!!!

iTunes

iTunes

iTunes

1

iTunes

iTunes

iTunes

iTunes

iTunes

30
pack

Новость дня

ВАЖНО

!!Акция!!

Alien_RageХит недели

RePack

Resident Evil 21

ИГРА 18+

pack

RePack

jed

!!Акция!!

Alien_Rage

RePack

fifa19

RePack

Assassins Creed: Odyssey

RePack

NEED FOR SPEED™ PAYBACK

4 сезон

9 сезон

Бесстыжие 9 сезон

Все сериалы

все сериалы на PB.wtf

RePack

FAR CRY 5
  

Танго мотылька (Игорь Мужжухин ) [2015, мелодрама, SATRip] pb.wtf

Танго мотылька через торрент pb.wtf

Размер: 1.25 GB | Добавлен: 5 лет 1 мес. назад | Торрент скачан:381 раз
Скачать  

29-03-2015 11:11 Танго мотылька Скачать торрент  


Танго мотылька


ИНФОРМАЦИЯ:
Год выпуска:2015
Страна: Россия
Жанр: мелодрама
Продолжительность: 01:29:10
Перевод: Не требуется
Режиссер: Игорь Мужжухин

В Ролях:


Дарья Щербакова (Анна Зарецкая), Сергей Мухин (Пётр Горохов), Анастасия Асеева, Дмитрий Куличков, Павел Кузьмин, Николай Лунин (Семён Иванович), Анна Швол, Руслан Джайбеков, Алла Подчуфарова, Светлана Иозефий, Сергей Карякин, Александр Алёшкин

ОПИСАНИЕ:
Еще вчера Аня была счастливой женой, ожидающей рождения малыша. Но семейная идиллия на поверку оказалась фальшивой и рухнула в один момент. Муж вероломно бросает Аню и уходит к другой, и это предательство становится лишь началом черной полосы. Тут же на Аню обрушивается и другая беда - девушка теряет ребенка.
Но и на этом злоключения Ани не заканчиваются. Новые соседи начинают вытравливать девушку из коммуналки и не гнушаются никакими средствами, чтобы получить ее комнату. Жизнь Ани превращается в ад, весь мир, кажется, ополчился на нее... Удастся ли девушке найти того, кто сможет защитить ее, и, наконец, прогнать страшный сон о мотыльке, сгорающем в огне?


ТЕХ.ДАННЫЕ:
Качество: SATRip
Формат: AVI
Видео кодек: XviD
Аудио кодек: AC3
Видео: XviD, 720x400 (16:9), 1800 kbps, 25 fps, 0,239 bpp
Аудио: AC3 / 2.0 / 48 kHz / 192 kbps / 16 bit



Код:

General
Complete name                            : D:\Торенты\Tango.Motylka.SATRip.avi
Format                                   : AVI
Format/Info                              : Audio Video Interleave
File size                                : 1.25 GiB
Duration                                 : 1h 29mn
Overall bit rate                         : 2 002 Kbps
Writing library                          : VirtualDub build 35491/release

Video
ID                                       : 0
Format                                   : MPEG-4 Visual
Format profile                           : Advanced Simple@L5
Format settings, BVOP                    : 2
Format settings, QPel                    : No
Format settings, GMC                     : No warppoints
Format settings, Matrix                  : Default (H.263)
Codec ID                                 : XVID
Codec ID/Hint                            : XviD
Duration                                 : 1h 29mn
Bit rate                                 : 1800 Kbps
Width                                    : 720 pixels
Height                                   : 400 pixels
Display aspect ratio                     : 16:9
Frame rate                               : 25.000 fps
Color space                              : YUV
Chroma subsampling                       : 4:2:0
Bit depth                                : 8 bits
Scan type                                : Progressive
Compression mode                         : Lossy
Bits/(Pixel*Frame)                       : 0.239
Stream size                              : 1.07 GiB (86%)
Writing library                          : XviD 1.2.1 (UTC 2008-12-04)

Audio
ID                                       : 1
Format                                   : AC-3
Format/Info                              : Audio Coding 3
Mode extension                           : CM (complete main)
Codec ID                                 : 2000
Duration                                 : 1h 29mn
Bit rate mode                            : Constant
Bit rate                                 : 192 Kbps
Channel(s)                               : 2 channels
Channel positions                        : Front: L R
Sampling rate                            : 48.0 KHz
Bit depth                                : 16 bits
Compression mode                         : Lossy
Stream size                              : 122 MiB (10%)
Alignment                                : Split accross interleaves

Скриншоты:


© Оформление by Ворон
pb.wtf



Скачать Танго мотылька через торрент http://pic.kartinco.top/images/6/ordi9.jpg Скачать фильм Танго мотылька через торрент бесплантно в хорошем качестве Е:Еще вчера Аня была счастливой женой, ожидающей рождения малыша. Но семейная идиллия на поверку оказалась фальшивой и рухнула в один ... 9.7 10 7
Торрент: Зарегистрирован [2015-03-29 11:11] · скачан: 381 раз
Статус: √ проверено
Размер: 1.25 GB
Как cкачать? Как скачать Танго мотылька через торрент | qTorrent

28-11-2019 20:33  

Отключить всю рекламу на сайте

    Дорогой пользователь! Огромная просьба, поблагодарите релизера, оцените раздачу и оставьте свои комментарий, если Вы скачали Танго мотылька через торрент бесплатно! Внесите свою лепту в развитие PiratBit!
    Комментировать посты могут только пользователи прошедшие не сложную регистрацию
    Показать сообщения:    

    Танго мотылька через торрент
    Скачать бесплатно Танго мотылька
    Танго мотылька скачать торрент
    Танго мотылька смотреть онлайн
    Cкачать фильм Танго мотылька бесплатно
    Танго мотылька скачать торрент в хорошем качестве
    Танго мотылька смотреть онлайн бесплатно в хорошем качестве


    Вы не можете начинать темы
    Вы не можете отвечать на сообщения
    Вы не можете редактировать свои сообщения
    Вы не можете удалять свои сообщения
    Вы не можете голосовать в опросах
    Вы не можете прикреплять файлы к сообщениям
    Вы можете скачивать файлы