Ссылка на приватное зеркало нашего сайта всего за 1$. Внимание количество ограничено!!!

2 сезон

iTunes

1 сезон

1

iTunes

iTunes

iTunes

1 сезон

RePack

30

ИГРА 18+

pack

ВАЖНО

!!Акция!!

Alien_RageХит недели

RePack

MK11
pack

Забери бонус

RePack

jed

!!Акция!!

Alien_Rage

RePack

fifa19

RePack

Assassins Creed: Odyssey

RePack

NEED FOR SPEED™ PAYBACK

4 сезон

9 сезон

Бесстыжие 9 сезон

Все сериалы

все сериалы на PB.wtf

RePack

FAR CRY 5
  

Уильям Тёрнер / Mr. Turner (Майк Ли ) [2014, драма, биография, история, HDRip, VO] pb.wtf

Уильям Тёрнер через торрент pb.wtf

Размер: 1.47 GB | Добавлен: 5 лет 6 мес. назад | Торрент скачан:79 раз
Скачать  

29-03-2015 13:30 Уильям Тёрнер Скачать торрент  


Уильям Тёрнер / Mr. Turner


ИНФОРМАЦИЯ:
Год выпуска:2014
Страна: Великобритания, Франция, Германия
Жанр: драма, биография, история
Продолжительность: 02:30:01
Перевод: Любительский (одноголосый)[Lord32x]
Режиссер: Майк Ли

В Ролях:


Тимоти Сполл (J.M.W. Turner), Пол Джессон (William Turner), Дороти Эткинсон (Hannah Danby), Мэрион Бэйли (Sophia Booth), Карл Джонсон (Mr. Booth), Рут Шин (Sarah Danby), Сэнди Фостер (Evelina), Эми Доусон (Georgiana), Лесли Мэнвилл (Mary Somerville), Мартин Сэвадж (Benjamin Robert Haydon), Ричард Бреммер (George Jones), Ниалл Багги (John Carew)

ОПИСАНИЕ:
История жизни и творчества британского живописца Уильяма Тёрнера.

  • Мировая премьера:15 мая 2014

    ТЕХ.ДАННЫЕ:
    Качество: HDRip
    Формат: AVI
    Видео кодек: XviD
    Аудио кодек: AC3
    Видео: XviD, 720x304 (2.35:1), 1007 kbps, 23,976 fps, 0,192 bpp
    Аудио: AC3 / 5.1 / 48 kHz / 384 kbps / 16 bit



    Код:

    General
    Complete name                            : D:\Торенты\Mr.Turner.2014.HDRip.1500MB.Lord32x.avi
    Format                                   : AVI
    Format/Info                              : Audio Video Interleave
    File size                                : 1.47 GiB
    Duration                                 : 2h 30mn
    Overall bit rate                         : 1 401 Kbps
    Writing application                      : VirtualDubMod 1.5.10.3 | www.virtualdub-fr.org || (build 2550/release)
    Writing library                          : VirtualDubMod build 2550/release

    Video
    ID                                       : 0
    Format                                   : MPEG-4 Visual
    Format profile                           : Advanced Simple@L5
    Format settings, BVOP                    : 1
    Format settings, QPel                    : No
    Format settings, GMC                     : No warppoints
    Format settings, Matrix                  : Default (H.263)
    Codec ID                                 : XVID
    Codec ID/Hint                            : XviD
    Duration                                 : 2h 30mn
    Bit rate                                 : 1 008 Kbps
    Width                                    : 720 pixels
    Height                                   : 304 pixels
    Display aspect ratio                     : 2.35:1
    Frame rate                               : 23.976 fps
    Color space                              : YUV
    Chroma subsampling                       : 4:2:0
    Bit depth                                : 8 bits
    Scan type                                : Progressive
    Compression mode                         : Lossy
    Bits/(Pixel*Frame)                       : 0.192
    Stream size                              : 1.06 GiB (72%)
    Writing library                          : XviD 1.2.1 (UTC 2008-12-04)

    Audio
    ID                                       : 1
    Format                                   : AC-3
    Format/Info                              : Audio Coding 3
    Mode extension                           : CM (complete main)
    Codec ID                                 : 2000
    Duration                                 : 2h 30mn
    Bit rate mode                            : Constant
    Bit rate                                 : 384 Kbps
    Channel(s)                               : 6 channels
    Channel positions                        : Front: L C R, Side: L R, LFE
    Sampling rate                            : 48.0 KHz
    Bit depth                                : 16 bits
    Compression mode                         : Lossy
    Stream size                              : 412 MiB (27%)
    Alignment                                : Split accross interleaves
    Interleave, duration                     : 42 ms (1.00 video frame)
    Interleave, preload duration             : 500 ms

    Скриншоты:


    © Оформление by Ворон
    pb.wtf



  • Скачать Уильям Тёрнер через торрент http://pic.kartinco.top/images/6/ordi9.jpg Скачать фильм Уильям Тёрнер через торрент бесплантно в хорошем качестве Е:История жизни и творчества британского живописца Уильяма Тёрнера. Мировая премьера:15 мая 2014 ТЕХ.ДАННЫЕ: ... 5.5 10 2
    Торрент: Зарегистрирован [2015-03-29 13:30] · скачан: 79 раз
    Статус: T временная
    Размер: 1.47 GB
    Как cкачать? Как скачать Уильям Тёрнер через торрент | qTorrent

    % Раздел Тема Автор DL S | L
    Фильмы 2014 [DVDrip, WEB-DLRip, HDrip] [ 2.18 GB ] Уильям Тёрнер / Mr. Turner [2014 биография история HDRip многоголосый закадровый " "] coc900 Скачать
    1 | 0

    28-11-2019 20:33  

    Отключить всю рекламу на сайте

    01-04-2015 19:03 Уильям Тёрнер Скачать торрент  

    И Элизабет Суон sarcasticpb.wtf



      Дорогой пользователь! Огромная просьба, поблагодарите релизера, оцените раздачу и оставьте свои комментарий, если Вы скачали Уильям Тёрнер через торрент бесплатно! Внесите свою лепту в развитие PiratBit!
      Комментировать посты могут только пользователи прошедшие не сложную регистрацию
      Показать сообщения:    

      Уильям Тёрнер через торрент
      Скачать бесплатно Уильям Тёрнер
      Уильям Тёрнер скачать торрент
      Уильям Тёрнер смотреть онлайн
      Cкачать фильм Уильям Тёрнер бесплатно
      Уильям Тёрнер скачать торрент в хорошем качестве
      Уильям Тёрнер смотреть онлайн бесплатно в хорошем качестве


      Вы не можете начинать темы
      Вы не можете отвечать на сообщения
      Вы не можете редактировать свои сообщения
      Вы не можете удалять свои сообщения
      Вы не можете голосовать в опросах
      Вы не можете прикреплять файлы к сообщениям
      Вы можете скачивать файлы