Ссылка на приватное зеркало нашего сайта всего за 1$. Внимание количество ограничено!!!

2 сезон

iTunes

1 сезон

1

iTunes

iTunes

iTunes

1 сезон

RePack

30

ИГРА 18+

pack

ВАЖНО

!!Акция!!

Alien_RageХит недели

RePack

MK11
pack

Забери бонус

RePack

jed

!!Акция!!

Alien_Rage

RePack

fifa19

RePack

Assassins Creed: Odyssey

RePack

NEED FOR SPEED™ PAYBACK

4 сезон

9 сезон

Бесстыжие 9 сезон

Все сериалы

все сериалы на PB.wtf

RePack

FAR CRY 5
  

Родина (1-12 серий из 12) (Павел Лунгин) [2015 г., Детектив, HDTVRip] pb.wtf

Родина через торрент pb.wtf

Размер: 7.71 GB | Добавлен: 5 лет 6 мес. назад | Торрент скачан:1228 раз
Скачать  

29-03-2015 18:44 Родина Скачать торрент  

Родина (сериал 2015 сезон 1, серия 1-12 из 12))
Год выпуска: 2015
Страна: Россия
Жанр: драма
Продолжительность: 12 х ~00:50:00

Режиссер: Павел Лунгин
Продюссер: Тимур Вайнштейн, Роман Елистратов, Юлия Сумачева
Сценарий: Михаил Шульман, Павел Лунгин

Бюджет: 2015

IMDB


В ролях: Владимир Машков, Виктория Исакова, Мария Миронова, Сергей Маковецкий, Андрей Мерзликин, Мария Шалаева, Тимофей Трибунцев, Валериу Андриуцэ, Алиса Хазанова, Илья Исаев

Описание: В центре сюжета — противостояние майора Алексея Брагина и эксперта-аналитика контртеррористического центра — Анны Зиминой.В ходе спецоперации на Северном Кавказе уничтожен лагерь по подготовке террористов и захвачен бункер, в котором обнаружен изможденный, прикованный к стене, заросший бородой человек. Это майор, Алексей Брагин. Шесть лет назад попав в засаду и потеряв большую часть товарищей, Брагин попадает в плен. Его признают пропавшим без вести. Уезжая в последнюю командировку, Брагин оставил в Москве семью — жену Елену, трехлетнего сына Ивана и девятилетнюю дочь Катю.Теперь он возвращается в мирную жизнь, где его уже, к сожалению, перестали ждать. Брагин пытается восстановить отношения с женой и дочерью, сблизиться с сыном, но кроме очевидных сложностей, мы видим и понимаем, что у него есть какая-то тайна, которую он тщательно скрывает даже от самых близких.Несмотря на ореол героя, после первых же допросов Брагина, Анна Зимина начинает подозревать, что тот завербован террористами. Основываясь на собственном опыте и интуиции, Анна старается разгадать тайну Брагина.

Качество: HDTVRip / исх. HDTV 1080i
Формат: AVI
Видео кодек: XviD
Аудио кодек: AC3
Видео: XviD, ~ 1750 Кбит/с, 720x400, 25 fps,
Аудио#1: AC3, 2 ch, 192 Кбит/с / 48 kHz
скриншот   скриншот   скриншот   скриншот  

Общее
Полное имя : D:\Родина.2015.HDTVRip.NNM-CLUB\02.серия.avi
Формат : AVI
Формат/Информация : Audio Video Interleave
Размер файла : 709 Мбайт
Продолжительность : 50 м.
Общий поток : 1952 Кбит/сек
Программа кодирования : VirtualDubMod 1.5.10.3 | (build 2550/release)
Библиотека кодирования : VirtualDubMod build 2550/release

Видео
Идентификатор : 0
Формат : MPEG-4 Visual
Профиль формата : Advanced Simple@L5
Параметр BVOP формата : 1
Параметр QPel формата : Нет
Параметр GMC формата : Без точки перехода
Параметр матрицы формата : Default (H.263)
Идентификатор кодека : XVID
Идентификатор кодека/Подсказка : XviD
Продолжительность : 50 м.
Битрейт : 1750 Кбит/сек
Ширина : 720 пикселей
Высота : 400 пикселей
Соотношение сторон : 16:9
Частота кадров : 25,000 кадров/сек
Цветовое пространство : YUV
Субдискретизация насыщенности : 4:2:0
Битовая глубина : 8 бит
Тип развёртки : Прогрессивная
Метод сжатия : С потерями
Бит/(Пиксели*Кадры) : 0.243
Размер потока : 636 Мбайт (90%)
Библиотека кодирования : XviD 73

Аудио
Идентификатор : 1
Формат : AC-3
Формат/Информация : Audio Coding 3
Расширение режима : CM (complete main)
Параметр Endianness формата : Big
Идентификатор кодека : 2000
Продолжительность : 50 м.
Вид битрейта : Постоянный
Битрейт : 192 Кбит/сек
Каналы : 2 канала
Расположение каналов : Front: L R
Частота : 48,0 КГц
Битовая глубина : 16 бит
Метод сжатия : С потерями
Размер потока : 69,7 Мбайт (10%)
Выравнивание : Разделение по промежуткам
Продолжительность промежутка : 40 мс. (1,00 видеокадр)
Время предзагрузки промежутка : 500 мс.

pb.wtf



Скачать Родина через торрент http://s015.radikal.ru/i333/1503/29/28b013fbfc34.jpg Скачать фильм Родина через торрент бесплантно в хорошем качестве Описание: В центре сюжета — противостояние майора Алексея Брагина и эксперта-аналитика контртеррористического центра — Анны Зиминой.В ходе ... 9.5 10 27
Info! Золотая раздача, скачанное не засчитывается.
Торрент: Зарегистрирован [2015-03-29 18:44] · скачан: 1 228 раз
Статус: √ проверено
Размер: 7.71 GB
Как cкачать? Как скачать Родина через торрент | qTorrent

% Раздел Тема Автор DL S | L
Зарубежные сериалы [ 14.84 GB ] Родина: Форт Салем / Motherland: Fort Salem / Сезон: 1 / Серии: 1-10 из 10 [2020 WEB-DL 1080p] MVO [Кириллица] bober100 Скачать
1 | 0
Рок, Панк, Альтернатива (lossless) [ 449 MB ] Западный Фронт - Родина 2019 / FLAC / lossless / Rock bober100 Скачать
1 | 0
Рок, Панк, Альтернатива (lossless) [ 389 MB ] Западный Фронт - Родина 2019 / FLAC / lossless / Rock bober100 Скачать
1 | 0
Рок, Панк, Альтернатива (mp3) [ 127 MB ] Западный Фронт - Родина 2019 / MP3 / 320 kbps / Rock bober100 Скачать
1 | 0
Зарубежные сериалы [ 7.28 GB ] Родина: Форт Салем / Motherland: Fort Salem / Сезон: 1 / Серии: 1-10 из 10 [2020 WEB-DLRip] MVO [Кириллица] bober100 Скачать
1 | 0
Родина / Чужой среди своих / Homeland [ 7.82 GB ] Родина / Чужой среди своих / Homeland / Сезон: 8 / Серии: 1-12 из 12 [2020 WEB-DLRip] MVO [LostFilm] bober100 Скачать
2 | 0
Родина / Чужой среди своих / Homeland [ 8.06 GB ] Родина / Чужой среди своих / Homeland / Сезон: 7 / Серии: 1-12 из 12 [2018 WEB-DLRip] MVO [Lostfilm] bober100 Скачать
1 | 0

28-11-2019 20:33  

Отключить всю рекламу на сайте

29-03-2015 21:06 Родина Скачать торрент  

pb.wtf



30-03-2015 12:34 Родина Скачать торрент  

спасибо за релиз.pb.wtf



04-04-2015 19:05 Родина Скачать торрент  

фильм про предателейpb.wtf



05-04-2015 16:14 Родина Скачать торрент  

Отличный сериал!!!!!pb.wtf



05-04-2015 18:11 Родина Скачать торрент  

спасибо, посмотрел с удовольствием!pb.wtf



15-04-2015 10:44 Родина Скачать торрент  

Когда 2 сезон?pb.wtf



06-05-2015 06:03 Родина Скачать торрент  

Встаньте на раздачу,мать вашу....... :ireful:pb.wtf



10-05-2015 08:29 Родина Скачать торрент  

"Аналитик ЦРУ Кэрри Мэтисон во время операции в Ираке выясняет, что американский военнопленный завербован Аль-Каедой. Вскоре после этого отряд спецназа Дельта во время зачистки обнаруживает сержанта морской пехоты Николаса Броуди, который числился пропавшим без вести с 2003-го года. Понимая, что доказать виновность Броуди будет практически невозможно, Кэрри обращается за помощью к своему наставнику Солу Беренсону. Вместе они будут вести расследование, чтобы предотвратить очередной теракт на территории США." - ничего не напоминает не? pb.wtf



19-05-2015 16:21 Родина Скачать торрент  

да наши все начали слизывать, этот , что корабль(или как там называется)pb.wtf



    Дорогой пользователь! Огромная просьба, поблагодарите релизера, оцените раздачу и оставьте свои комментарий, если Вы скачали Родина через торрент бесплатно! Внесите свою лепту в развитие PiratBit!
    Комментировать посты могут только пользователи прошедшие не сложную регистрацию
    Показать сообщения:    

    Родина через торрент
    Скачать бесплатно Родина
    Родина скачать торрент
    Родина смотреть онлайн
    Cкачать фильм Родина бесплатно
    Родина скачать торрент в хорошем качестве
    Родина смотреть онлайн бесплатно в хорошем качестве


    Вы не можете начинать темы
    Вы не можете отвечать на сообщения
    Вы не можете редактировать свои сообщения
    Вы не можете удалять свои сообщения
    Вы не можете голосовать в опросах
    Вы не можете прикреплять файлы к сообщениям
    Вы можете скачивать файлы