Мега распродажа FORZA HORIZON 4 ULTIMATE+ВСЕ DLC+ОНЛАЙН всего за 499р. 349 руб. (супер цена). Внимание количество ограничено!!!

iTunes

1+1

iTunes

мы

iTunes

1

1 сезон

Чернобыль

1 сезон

Ральф против интернета

Лицензия

ПШазам

8 сезон

Игра престолов

Лицензия

30
pack

ВАЖНО

!!Акция!!

Alien_RageХит недели

RePack

Resident Evil 21

ИГРА 18+

pack

RePack

Metro:Exodus

!!Акция!!

Alien_Rage

RePack

fifa19

RePack

Assassins Creed: Odyssey

RePack

NEED FOR SPEED™ PAYBACK

3 сезон

9 сезон

Бесстыжие 9 сезон

Все сериалы

все сериалы на PB.wtf

RePack

FAR CRY 5
Ребята, катастрофически не хватает 2730р. для оплаты серверов за ИЮНЬ (всвязи с блокировками трафик упал в 3 раза), 1-2р., выручайте.
  

Отчаянно ищу Сьюзэн / Desperately Seeking Susan (Сьюзэн Сейдельман) [1985, комедия, драма, BDRip-AVC] 2 x DVO, AVO pb.wtf

Отчаянно ищу Сьюзэн через торрент pb.wtf

Размер: 3.05 GB | Добавлен: 4 года 3 мес. назад | Торрент скачан:17 раз
Скачать  

30-03-2015 07:51 Отчаянно ищу Сьюзэн Скачать торрент  

Отчаянно ищу Сьюзэн / Desperately Seeking Susan

Год выпуска: 1985
Страна: США
Жанр: комедия, драма
Продолжительность: 01:43:41
Перевод: профессиональный двухголосый, авторский
Субтитры: английские

Режиссёр: Сьюзэн Сейдельман

В ролях: Розанна Аркетт, Мадонна, Эйдан Куинн, Марк Блум, Лори Меткаф, Роберт Джой, Анна Левайн-Томпсон, Уилл Пэттон, Питер Мэлоуни, Стивен Райт, Джон Туртурро, Энн Карлайл, Хосе Анхел Сантана, Джанкарло Эспозито, Ричард Хелл

Описание: Роберта Гласс, жена удачливого бизнесмена, устала от беззаботной и богатой жизни. Однажды, просматривая колонку частных объявлений в газете, она натыкается на короткое послание: "Отчаянно ищу Сьюзэн". Роберта начинает следить за объявлениями для Сьюзэн, испытывая нарастающее любопытство и желание увидеть ту девушку, которую кто-то так отчаянно желает встретить. В следующем объявлении предлагается встреча в конкретном месте. Роберта отправляется к месту свидания. Но любопытство Роберты не удовлетворено. Она начинает следить за Сьюзэн, преследуя её по пятам. Роберте даже удаётся выкупить куртку девушки, в которой она находит забытый ключ. Испытывая вкус приключений, Роберта превращается в Сьюзэн. Ей невдомёк, что эта весёлая интрига втягивает её в опасную игру. За настоящей Сьюзэн охотится убийца - девчонка прихватила пару бесценных серёг. И, волей-неволей, ей, Роберте, придётся встретиться с преступником...



Качество: BDRip-AVC Сравнение с исходником
Формат: MKV
Видео кодек: H.264
Аудио кодек: AC3
Видео: 3355 Кбит/с, 1024x556, 23.976 кадра/с, 0.246 bpp
Аудио 1: русский, AC3, 192 kbps, 2 ch, 48 kHz [профессиональный двухголосый, НТВ+]
Аудио 2: русский, AC3, 192 kbps, 2 ch, 48 kHz [профессиональный двухголосый]
Аудио 3: русский, AC3, 192 kbps, 2 ch, 48 kHz [авторский, Владимир Королёв]
Аудио 4: английский, AC3, 192 kbps, 2 ch, 48 kHz [оригинал]
Золотой глобус, 1986 год
Номинации (1):
Лучшая женская роль (комедия или мюзикл) (Розанна Аркетт)

Британская академия, 1986 год
Победитель (1):
Лучшая женская роль второго плана (Розанна Аркетт)

Сезар, 1986 год
Номинации (1):
Лучший фильм на иностранном языке
frame I:901 Avg QP:20.83 size: 64385
frame P:27362 Avg QP:21.93 size: 31805
frame B:120897 Avg QP:23.58 size: 14430

Общее
Уникальный идентификатор : 206410289318692072519611379651629985864 (0x9B492CFADCAB5FBBB24EF4C26B0AB048)
Полное имя : D:VideoOtchajanno ishu Sjusen.1985.BDRip.AVC.mkv
Формат : Matroska
Версия формата : Version 4 / Version 2
Размер файла : 3,05 Гбайт
Продолжительность : 1 ч. 43 м.
Общий поток : 4207 Кбит/сек
Дата кодирования : UTC 2015-03-29 14:57:40
Программа кодирования : mkvmerge v7.8.0 ('River Man') 64bit built on Mar 27 2015 16:31:37
Библиотека кодирования : libebml v1.3.1 + libmatroska v1.4.2
DURATION : 01:38:36.535000000
NUMBER_OF_FRAMES : 1069
NUMBER_OF_BYTES : 35215
_STATISTICS_WRITING_APP : mkvmerge v7.8.0 ('River Man') 64bit built on Mar 27 2015 16:31:37
_STATISTICS_WRITING_DATE_UTC : 2015-03-29 14:57:40
_STATISTICS_TAGS : BPS DURATION NUMBER_OF_FRAMES NUMBER_OF_BYTES

Видео
Идентификатор : 1
Формат : AVC
Формат/Информация : Advanced Video Codec
Профиль формата : High@L4.1
Параметр CABAC формата : Да
Параметр ReFrames формата : 9 кадров
Идентификатор кодека : V_MPEG4/ISO/AVC
Продолжительность : 1 ч. 43 м.
Битрейт : 3355 Кбит/сек
Ширина : 1024 пикселя
Высота : 556 пикселей
Соотношение сторон : 1,85:1
Режим частоты кадров : Постоянный
Частота кадров : 23,976 кадра/сек
Цветовое пространство : YUV
Субдискретизация насыщенности : 4:2:0
Битовая глубина : 8 бит
Тип развёртки : Прогрессивная
Бит/(Пиксели*Кадры) : 0.246
Размер потока : 2,43 Гбайт (80%)
Заголовок : BDRip -- STarankov
Библиотека кодирования : x264 core 142 r2431 ac76440
Настройки программы : cabac=1 / ref=9 / deblock=1:-1:-1 / analyse=0x3:0x113 / me=umh / subme=10 / psy=1 / psy_rd=1.00:0.15 / mixed_ref=1 / me_range=32 / chroma_me=1 / trellis=2 / 8x8dct=1 / cqm=0 / deadzone=21,11 / fast_pskip=1 / chroma_qp_offset=-3 / threads=6 / lookahead_threads=1 / sliced_threads=0 / nr=0 / decimate=1 / interlaced=0 / bluray_compat=0 / constrained_intra=0 / bframes=8 / b_pyramid=2 / b_adapt=2 / b_bias=0 / direct=3 / weightb=1 / open_gop=0 / weightp=2 / keyint=230 / keyint_min=23 / scenecut=40 / intra_refresh=0 / rc_lookahead=40 / rc=crf / mbtree=0 / crf=20.0 / qcomp=0.60 / qpmin=0 / qpmax=69 / qpstep=4 / vbv_maxrate=40000 / vbv_bufsize=50000 / crf_max=0.0 / nal_hrd=none / filler=0 / ip_ratio=1.40 / pb_ratio=1.30 / aq=1:1.00
Язык : English
Default : Да
Forced : Нет
DURATION : 01:43:41.215000000
NUMBER_OF_FRAMES : 149160
NUMBER_OF_BYTES : 2672828852
_STATISTICS_WRITING_APP : mkvmerge v7.8.0 ('River Man') 64bit built on Mar 27 2015 16:31:37
_STATISTICS_WRITING_DATE_UTC : 2015-03-29 14:57:40
_STATISTICS_TAGS : BPS DURATION NUMBER_OF_FRAMES NUMBER_OF_BYTES

Аудио #1
Идентификатор : 2
Формат : AC-3
Формат/Информация : Audio Coding 3
Расширение режима : CM (complete main)
Параметр Endianness формата : Big
Идентификатор кодека : A_AC3
Продолжительность : 1 ч. 43 м.
Вид битрейта : Постоянный
Битрейт : 192 Кбит/сек
Каналы : 2 канала
Расположение каналов : Front: L R
Частота : 48,0 КГц
Битовая глубина : 16 бит
Метод сжатия : С потерями
Размер потока : 142 Мбайт (5%)
Заголовок : DVO (HTB+)
Язык : Russian
Default : Да
Forced : Нет

Аудио #2
Идентификатор : 3
Формат : AC-3
Формат/Информация : Audio Coding 3
Расширение режима : CM (complete main)
Параметр Endianness формата : Big
Идентификатор кодека : A_AC3
Продолжительность : 1 ч. 43 м.
Вид битрейта : Постоянный
Битрейт : 192 Кбит/сек
Каналы : 2 канала
Расположение каналов : Front: L R
Частота : 48,0 КГц
Битовая глубина : 16 бит
Метод сжатия : С потерями
Размер потока : 142 Мбайт (5%)
Заголовок : DVO
Язык : Russian
Default : Нет
Forced : Нет

Аудио #3
Идентификатор : 4
Формат : AC-3
Формат/Информация : Audio Coding 3
Расширение режима : CM (complete main)
Параметр Endianness формата : Big
Идентификатор кодека : A_AC3
Продолжительность : 1 ч. 43 м.
Вид битрейта : Постоянный
Битрейт : 192 Кбит/сек
Каналы : 2 канала
Расположение каналов : Front: L R
Частота : 48,0 КГц
Битовая глубина : 16 бит
Метод сжатия : С потерями
Размер потока : 142 Мбайт (5%)
Заголовок : AVO (Владимир Королёв)
Язык : Russian
Default : Нет
Forced : Нет

Аудио #4
Идентификатор : 5
Формат : AC-3
Формат/Информация : Audio Coding 3
Расширение режима : CM (complete main)
Параметр Endianness формата : Big
Идентификатор кодека : A_AC3
Продолжительность : 1 ч. 43 м.
Вид битрейта : Постоянный
Битрейт : 192 Кбит/сек
Каналы : 2 канала
Расположение каналов : Front: L R
Частота : 48,0 КГц
Битовая глубина : 16 бит
Метод сжатия : С потерями
Размер потока : 142 Мбайт (5%)
Заголовок : Original
Язык : English
Default : Нет
Forced : Нет

Текст
Идентификатор : 6
Формат : UTF-8
Идентификатор кодека : S_TEXT/UTF8
Идентификатор кодека/Информация : UTF-8 Plain Text
Заголовок : английские
Язык : English
Default : Нет
Forced : Нет
pb.wtf



Скачать Отчаянно ищу Сьюзэн через торрент http://i65.fastpic.ru/big/2015/0330/4f/3d412d12522ab48dc6187fa6b0def44f.jpg Скачать фильм Отчаянно ищу Сьюзэн через торрент бесплантно в хорошем качестве Описание: Роберта Гласс, жена удачливого бизнесмена, устала от беззаботной и богатой жизни. Однажды, просматривая колонку частных ... 10 10 4
Торрент: Зарегистрирован [2015-03-30 07:51] · скачан: 17 раз
Статус: √ проверено
Размер: 3.05 GB
Как cкачать? Как скачать Отчаянно ищу Сьюзэн через торрент | qTorrent

% Раздел Тема Автор DL S | L
Фильмы [HD 720p, 1080p] (Хороший звук DUB, MVO) [ 4.71 GB ] Отчаянно ищу Сьюзэн / Desperately Seeking Susan [1985 BDRip 720p] 2 x DVO AVO msltel Скачать
1 | 0


>> Регистрируемся здесь <<






Отзывы и комментарии о схеме читаем и пишем здесь: ---> Отзывы и комментарии о схеме

Новые благодарочки в телеграм довольных пользователей:
скриншот   скриншот   скриншот   скриншот   скриншот
    Дорогой пользователь! Огромная просьба, поблагодарите релизера, оцените раздачу и оставьте свои комментарий, если Вы скачали Отчаянно ищу Сьюзэн через торрент бесплатно! Внесите свою лепту в развитие PiratBit!
    Комментировать посты могут только пользователи прошедшие не сложную регистрацию
    Показать сообщения:    

    Отчаянно ищу Сьюзэн через торрент
    Скачать бесплатно Отчаянно ищу Сьюзэн
    Отчаянно ищу Сьюзэн скачать торрент
    Отчаянно ищу Сьюзэн смотреть онлайн
    Cкачать фильм Отчаянно ищу Сьюзэн бесплатно
    Отчаянно ищу Сьюзэн скачать торрент в хорошем качестве
    Отчаянно ищу Сьюзэн смотреть онлайн бесплатно в хорошем качестве


    Вы не можете начинать темы
    Вы не можете отвечать на сообщения
    Вы не можете редактировать свои сообщения
    Вы не можете удалять свои сообщения
    Вы не можете голосовать в опросах
    Вы не можете прикреплять файлы к сообщениям
    Вы можете скачивать файлы