Мега распродажа FORZA HORIZON 4 ULTIMATE+ВСЕ DLC+ОНЛАЙН всего за 499р. 349 руб. (супер цена). Внимание количество ограничено!!!

iTunes

1+1

iTunes

мы

iTunes

1

1 сезон

Чернобыль

1 сезон

Ральф против интернета

Лицензия

ПШазам

8 сезон

Игра престолов

Лицензия

30
pack

ВАЖНО

!!Акция!!

Alien_RageХит недели

RePack

Resident Evil 21

ИГРА 18+

pack

RePack

Metro:Exodus

!!Акция!!

Alien_Rage

RePack

fifa19

RePack

Assassins Creed: Odyssey

RePack

NEED FOR SPEED™ PAYBACK

3 сезон

9 сезон

Бесстыжие 9 сезон

Все сериалы

все сериалы на PB.wtf

RePack

FAR CRY 5
Ребята, катастрофически не хватает 2730р. для оплаты серверов за ИЮНЬ (всвязи с блокировками трафик упал в 3 раза), 1-2р., выручайте.
  

Монстро / Cloverfield (Мэтт Ривз) [2008, ужасы, фантастика, триллер, детектив, BDRip-AVC] DUB, 2 x MVO, AVO pb.wtf

Монстро через торрент pb.wtf

Размер: 3.06 GB | Добавлен: 4 года 3 мес. назад | Торрент скачан:349 раз
Скачать  

30-03-2015 09:59 Монстро Скачать торрент  

Монстро / Cloverfield

Год выпуска: 2008
Страна: США
Жанр: ужасы, фантастика, триллер, детектив
Продолжительность: 01:24:41
Перевод: дублированный, профессиональный многоголосый, авторский
Субтитры: русские, русские (комментарий), английские

Режиссёр: Мэтт Ривз

В ролях: Майкл Сталь-Дэвид, Одетт Эннэйбл, Майк Фогель, Джессика Лукас, ТиДжей Миллер, Лиззи Каплан, Анжул Нигам, Марго Фарли, Тео Росси, Брайан Клагман, Келвин Ю, Лиза Лапира, Лили Мирожник, Бен Фельдман, Елена Карузо, Вакиша Коулмэн, Уилл Гринберг, Роб Керкович, Райан Ки, Хооман Халили, Расика Матур, Барон Вон, Шарлин Йи, Рома Торре, Рик Овертон, Мартин Коэн, Джейсон Кербоун, Павел Личникофф, Билли Браун, Скотт Лоуренс, Джеффри Де Серрано, Тим Гриффин, Крис Малки, Суссе Будде, Джейсон Ломбард, Джэми Мартц, Дон Абернати, Кэйли Оукс-Биссон

Описание: Прощальную вечеринку уезжающего в Японию Роба прерывает громогласный рык — нечто напало на Нью-Йорк, сея панику, разрушения и пожирая людей. Армия бессильна против гигантского монстра; Манхэттен объявлен закрытой зоной; но где-то неподалёку от Центрального парка в беду попала девушка Роба...



Качество: BDRip-AVC Сравнение с исходником
Формат: MKV
Видео кодек: H.264
Аудио кодек: AC3
Видео: 2833 Кбит/с, 1024x576, 23.976 кадра/с, 0.200 bpp
Аудио 1: русский, AC3, 448 kbps, 6 ch, 48 kHz [дублированный]
Аудио 2: русский, AC3, 448 kbps, 6 ch, 48 kHz [профессиональный многоголосый, Киномания]
Аудио 3: русский, AC3, 448 kbps, 6 ch, 48 kHz [профессиональный многоголосый, Лостфильм]
Аудио 4: русский, AC3, 448 kbps, 6 ch, 48 kHz [авторский, Юрий Немахов]
Аудио 5: английский, AC3, 448 kbps, 6 ch, 48 kHz [оригинал]
Жорж, 2009 год
Номинации (1):
Лучший высокобюджетный/зрелищный фильм

Сатурн, 2008 год
Победитель (1):
Лучший научно-фантастический фильм

Номинации (1):
Лучшая актриса второго плана (Лиззи Каплан)
frame I:568 Avg QP:14.97 size: 50600
frame P:31143 Avg QP:18.19 size: 26101
frame B:90101 Avg QP:20.92 size: 11336

Общее
Уникальный идентификатор : 175897936799554021116668160454630362392 (0x8454B5DA673CD7F0BFA325D255A4CD18)
Полное имя : D:VideoMonstro.2008.BDRip.AVC.mkv
Формат : Matroska
Версия формата : Version 4 / Version 2
Размер файла : 3,06 Гбайт
Продолжительность : 1 ч. 24 м.
Общий поток : 5176 Кбит/сек
Дата кодирования : UTC 2015-03-30 04:37:17
Программа кодирования : mkvmerge v7.8.0 ('River Man') 64bit built on Mar 27 2015 16:31:37
Библиотека кодирования : libebml v1.3.1 + libmatroska v1.4.2
_STATISTICS_WRITING_APP : mkvmerge v7.8.0 ('River Man') 64bit built on Mar 27 2015 16:31:37
_STATISTICS_WRITING_DATE_UTC : 2015-03-30 04:37:17
_STATISTICS_TAGS : BPS DURATION NUMBER_OF_FRAMES NUMBER_OF_BYTES
DURATION : 01:11:44.133000000
NUMBER_OF_FRAMES : 1168
NUMBER_OF_BYTES : 48271

Видео
Идентификатор : 1
Формат : AVC
Формат/Информация : Advanced Video Codec
Профиль формата : High@L4.1
Параметр CABAC формата : Да
Параметр ReFrames формата : 9 кадров
Идентификатор кодека : V_MPEG4/ISO/AVC
Продолжительность : 1 ч. 24 м.
Битрейт : 2833 Кбит/сек
Ширина : 1024 пикселя
Высота : 576 пикселей
Соотношение сторон : 16:9
Режим частоты кадров : Постоянный
Частота кадров : 23,976 кадра/сек
Цветовое пространство : YUV
Субдискретизация насыщенности : 4:2:0
Битовая глубина : 8 бит
Тип развёртки : Прогрессивная
Бит/(Пиксели*Кадры) : 0.200
Размер потока : 1,68 Гбайт (55%)
Заголовок : BDRip -- STarankov
Библиотека кодирования : x264 core 142 r2431 ac76440
Настройки программы : cabac=1 / ref=9 / deblock=1:-1:-1 / analyse=0x3:0x113 / me=umh / subme=10 / psy=1 / psy_rd=1.00:0.15 / mixed_ref=1 / me_range=32 / chroma_me=1 / trellis=2 / 8x8dct=1 / cqm=0 / deadzone=21,11 / fast_pskip=1 / chroma_qp_offset=-3 / threads=6 / lookahead_threads=1 / sliced_threads=0 / nr=0 / decimate=1 / interlaced=0 / bluray_compat=0 / constrained_intra=0 / bframes=8 / b_pyramid=2 / b_adapt=2 / b_bias=0 / direct=3 / weightb=1 / open_gop=0 / weightp=2 / keyint=230 / keyint_min=23 / scenecut=40 / intra_refresh=0 / rc_lookahead=40 / rc=crf / mbtree=0 / crf=19.5 / qcomp=0.60 / qpmin=0 / qpmax=69 / qpstep=4 / vbv_maxrate=40000 / vbv_bufsize=50000 / crf_max=0.0 / nal_hrd=none / filler=0 / ip_ratio=1.40 / pb_ratio=1.30 / aq=1:1.00
Язык : English
Default : Да
Forced : Нет
_STATISTICS_WRITING_APP : mkvmerge v7.8.0 ('River Man') 64bit built on Mar 27 2015 16:31:37
_STATISTICS_WRITING_DATE_UTC : 2015-03-30 04:37:17
_STATISTICS_TAGS : BPS DURATION NUMBER_OF_FRAMES NUMBER_OF_BYTES
DURATION : 01:24:40.576000000
NUMBER_OF_FRAMES : 121812
NUMBER_OF_BYTES : 1862979067

Аудио #1
Идентификатор : 2
Формат : AC-3
Формат/Информация : Audio Coding 3
Расширение режима : CM (complete main)
Параметр Endianness формата : Big
Идентификатор кодека : A_AC3
Продолжительность : 1 ч. 24 м.
Вид битрейта : Постоянный
Битрейт : 448 Кбит/сек
Каналы : 6 каналов
Расположение каналов : Front: L C R, Side: L R, LFE
Частота : 48,0 КГц
Битовая глубина : 16 бит
Метод сжатия : С потерями
Размер потока : 271 Мбайт (9%)
Заголовок : DUB
Язык : Russian
Default : Да
Forced : Нет

Аудио #2
Идентификатор : 3
Формат : AC-3
Формат/Информация : Audio Coding 3
Расширение режима : CM (complete main)
Параметр Endianness формата : Big
Идентификатор кодека : A_AC3
Продолжительность : 1 ч. 24 м.
Вид битрейта : Постоянный
Битрейт : 448 Кбит/сек
Каналы : 6 каналов
Расположение каналов : Front: L C R, Side: L R, LFE
Частота : 48,0 КГц
Битовая глубина : 16 бит
Метод сжатия : С потерями
Размер потока : 271 Мбайт (9%)
Заголовок : MVO (Киномания)
Язык : Russian
Default : Нет
Forced : Нет

Аудио #3
Идентификатор : 4
Формат : AC-3
Формат/Информация : Audio Coding 3
Расширение режима : CM (complete main)
Параметр Endianness формата : Big
Идентификатор кодека : A_AC3
Продолжительность : 1 ч. 24 м.
Вид битрейта : Постоянный
Битрейт : 448 Кбит/сек
Каналы : 6 каналов
Расположение каналов : Front: L C R, Side: L R, LFE
Частота : 48,0 КГц
Битовая глубина : 16 бит
Метод сжатия : С потерями
Задержка видео : 1 с. 0 мс.
Размер потока : 271 Мбайт (9%)
Заголовок : MVO (Лостфильм)
Язык : Russian
Default : Нет
Forced : Нет

Аудио #4
Идентификатор : 5
Формат : AC-3
Формат/Информация : Audio Coding 3
Расширение режима : CM (complete main)
Параметр Endianness формата : Big
Идентификатор кодека : A_AC3
Продолжительность : 1 ч. 24 м.
Вид битрейта : Постоянный
Битрейт : 448 Кбит/сек
Каналы : 6 каналов
Расположение каналов : Front: L C R, Side: L R, LFE
Частота : 48,0 КГц
Битовая глубина : 16 бит
Метод сжатия : С потерями
Размер потока : 271 Мбайт (9%)
Заголовок : AVO (Юрий Немахов)
Язык : Russian
Default : Нет
Forced : Нет

Аудио #5
Идентификатор : 6
Формат : AC-3
Формат/Информация : Audio Coding 3
Расширение режима : CM (complete main)
Параметр Endianness формата : Big
Идентификатор кодека : A_AC3
Продолжительность : 1 ч. 24 м.
Вид битрейта : Постоянный
Битрейт : 448 Кбит/сек
Каналы : 6 каналов
Расположение каналов : Front: L C R, Side: L R, LFE
Частота : 48,0 КГц
Битовая глубина : 16 бит
Метод сжатия : С потерями
Размер потока : 271 Мбайт (9%)
Заголовок : Original
Язык : English
Default : Нет
Forced : Нет

Текст #1
Идентификатор : 7
Формат : UTF-8
Идентификатор кодека : S_TEXT/UTF8
Идентификатор кодека/Информация : UTF-8 Plain Text
Заголовок : русские
Язык : Russian
Default : Нет
Forced : Нет

Текст #2
Идентификатор : 8
Формат : UTF-8
Идентификатор кодека : S_TEXT/UTF8
Идентификатор кодека/Информация : UTF-8 Plain Text
Заголовок : русские (комментарий)
Язык : Russian
Default : Нет
Forced : Нет

Текст #3
Идентификатор : 9
Формат : UTF-8
Идентификатор кодека : S_TEXT/UTF8
Идентификатор кодека/Информация : UTF-8 Plain Text
Заголовок : английские
Default : Нет
Forced : Нет
pb.wtf



Скачать Монстро через торрент http://i65.fastpic.ru/big/2015/0330/f9/83f278e26b3e495120684a52259885f9.jpg Скачать фильм Монстро через торрент бесплантно в хорошем качестве Описание: Прощальную вечеринку уезжающего в Японию Роба прерывает громогласный рык — нечто напало на Нью-Йорк, сея панику, разрушения и ... 9.6 10 15
Торрент: Зарегистрирован [2015-03-30 09:59] · скачан: 349 раз
Статус: √ проверено
Размер: 3.06 GB
Как cкачать? Как скачать Монстро через торрент | qTorrent

% Раздел Тема Автор DL S | L
Фильмы [HD 720p, 1080p] (Хороший звук DUB, MVO) [ 4.2 GB ] Монстро / Cloverfield [2008 BDRip 720p] DUB 2 x MVO AVO msltel Скачать
4 | 0


Последний раз редактировалось: msltel (2015-03-30 15:22), всего редактировалось 3 раз(а)


>> Регистрируемся здесь <<






Отзывы и комментарии о схеме читаем и пишем здесь: ---> Отзывы и комментарии о схеме

Новые благодарочки в телеграм довольных пользователей:
скриншот   скриншот   скриншот   скриншот   скриншот

30-03-2015 10:47 Монстро Скачать торрент  

классный фильмец, первый просмотр впечатлил тогда сильноpb.wtf



30-03-2015 10:53 Монстро Скачать торрент  

а есть продолжение?pb.wtf



30-03-2015 12:57 Монстро Скачать торрент  

Ссылочка на рейтинг в Кинопоиске отсылает на совершенно другой кинофильм... а зря... поскольку РЕАЛЬНЫЙ рейтинг "Монстро" в Кинопоиске немного выше... 7.097... :pleasantry:pb.wtf



30-03-2015 15:25 Монстро Скачать торрент  

Денди, исправлено. Спасибо.pb.wtf



    Дорогой пользователь! Огромная просьба, поблагодарите релизера, оцените раздачу и оставьте свои комментарий, если Вы скачали Монстро через торрент бесплатно! Внесите свою лепту в развитие PiratBit!
    Комментировать посты могут только пользователи прошедшие не сложную регистрацию
    Показать сообщения:    

    Монстро через торрент
    Скачать бесплатно Монстро
    Монстро скачать торрент
    Монстро смотреть онлайн
    Cкачать фильм Монстро бесплатно
    Монстро скачать торрент в хорошем качестве
    Монстро смотреть онлайн бесплатно в хорошем качестве


    Вы не можете начинать темы
    Вы не можете отвечать на сообщения
    Вы не можете редактировать свои сообщения
    Вы не можете удалять свои сообщения
    Вы не можете голосовать в опросах
    Вы не можете прикреплять файлы к сообщениям
    Вы можете скачивать файлы