Ссылка на приватное зеркало нашего сайта всего за 1$. Внимание количество ограничено!!!

2 сезон

iTunes

1 сезон

1

2 сезон

2 сезон

iTunes

1 сезон

RePack

30

Ultimate

ВАЖНО

ИГРА 18+

pack

RePack

MK11
pack

Забери бонус

RePack

jed

!!Акция!!

Alien_Rage

RePack

fifa19

RePack

Assassins Creed: Odyssey

RePack

NEED FOR SPEED™ PAYBACK

4 сезон

9 сезон

Бесстыжие 9 сезон

Все сериалы

все сериалы на PB.wtf

RePack

FAR CRY 5
  

Halo: Сумерки / Halo: Nightfall / Сезон: 1 / Серии: 5 из 5 (Серджо Мимика-Геззан ) [2014 г., фантастика, HDRip, Профессиональный многоголосый AlexFilm] pb.wtf

Halo: Сумерки через торрент pb.wtf

Размер: 1.6 GB | Добавлен: 5 лет 7 мес. назад | Торрент скачан:168 раз
Скачать  

30-03-2015 18:03 Halo: Сумерки Скачать торрент  

Halo: Сумерки / Halo: Nightfall
Год выпуска: 2014
Страна: США
Жанр: фантастика, боевик, триллер, приключения
Продолжительность: 01:38:12
Перевод: Профессиональный многоголосый AlexFilm

Режиссер: Серджо Мимика-Геззан

IMDB 6.10 (1453)


В ролях: Стивен Вэддингтон, Siennah Buck, Майк Колтер, Кристиан Райан Контрерарс, Александр Бхат, Люк Нил, Джонатан Харден, Сара Армстронг, Шон Блэйни, Katherine Fitzpatrick

Описание: Действие сериала начнётся с событий на одной из Внешних колоний человечества, Седре. Отряд Службы военной разведки под командованием капитан-лейтенанта Джеймсона Локка высажен на планету с целью расследовать предполагаемую террористическую деятельность. Отряд подвергается атаке радикалов, и становится известно, что те пытаются использовать некое биологическое оружие, способное влиять только на людей. Ради своего выживания оперативники отряда вынуждены работать вместе с одним из местных командиров Рэндаллом Аикеном. Оставаясь на Седре, отряд обнаруживает инопланетный артефакт. Тем временем на орбиту колонии прибывает частично функциональная секция уничтоженной Установки 04.

Качество: HDRip
Формат: AVI
Видео кодек: XviD
Аудио кодек: AC3
Видео: 720x304 (2.37:1), 23.976 fps, XviD build 50 ~1869 kbps avg, 0.36 bit/pixel
Аудио: 48 kHz, AC3 Dolby Digital, 3/2 (L,C,R,l,r) + LFE ch, ~448 kbps

скриншот   скриншот   скриншот   скриншот   скриншот   скриншот  

Общее
Полное имя : F:\кино\Halo.Сумерки.2014.HDRip.avi
Формат : AVI
Формат/Информация : Audio Video Interleave
Размер файла : 1,60 Гбайт
Продолжительность : 1 ч. 38 м.
Общий поток : 2327 Кбит/сек
Программа кодирования : VirtualDubMod 1.5.10.3 | www.virtualdub-fr.org || (build 2550/release)
Библиотека кодирования : VirtualDubMod build 2550/release

Видео
Идентификатор : 0
Формат : MPEG-4 Visual
Профиль формата : Advanced Simple@L5
Параметр BVOP формата : 2
Параметр QPel формата : Нет
Параметр GMC формата : Без точки перехода
Параметр матрицы формата : Default (H.263)
Идентификатор кодека : XVID
Идентификатор кодека/Подсказка : XviD
Продолжительность : 1 ч. 38 м.
Битрейт : 1870 Кбит/сек
Ширина : 720 пикселей
Высота : 304 пикселя
Соотношение сторон : 2,35:1
Частота кадров : 23,976 кадра/сек
Цветовое пространство : YUV
Субдискретизация насыщенности : 4:2:0
Битовая глубина : 8 бит
Тип развёртки : Прогрессивная
Метод сжатия : С потерями
Бит/(Пиксели*Кадры) : 0.356
Размер потока : 1,28 Гбайт (80%)
Библиотека кодирования : XviD 1.2.1 (UTC 2008-12-04)

Аудио
Идентификатор : 1
Формат : AC-3
Формат/Информация : Audio Coding 3
Расширение режима : CM (complete main)
Параметр Endianness формата : Big
Идентификатор кодека : 2000
Продолжительность : 1 ч. 38 м.
Вид битрейта : Постоянный
Битрейт : 448 Кбит/сек
Каналы : 6 каналов
Расположение каналов : Front: L C R, Side: L R, LFE
Частота : 48,0 КГц
Битовая глубина : 16 бит
Метод сжатия : С потерями
Размер потока : 315 Мбайт (19%)
Выравнивание : Разделение по промежуткам
Продолжительность промежутка : 42 мс. (1,00 видеокадр)
Время предзагрузки промежутка : 500 мс.

pb.wtf



Скачать Halo: Сумерки через торрент http://pic1.kartinco.top/images/10/dqp5w.jpg Скачать фильм Halo: Сумерки через торрент бесплантно в хорошем качестве Описание: Действие сериала начнётся с событий на одной из Внешних колоний человечества, Седре. Отряд Службы военной разведки под ... 8.7 10 7
Торрент: Зарегистрирован [2015-03-30 18:03] · скачан: 168 раз
Статус: √ проверено
Размер: 1.6 GB
Как cкачать? Как скачать Halo: Сумерки через торрент | qTorrent

% Раздел Тема Автор DL S | L
Зарубежные сериалы [ 8.05 GB ] Halo: Сумерки / Halo: Nightfall / Сезон: 1 / Серии: 5 из 5 [2014 BDRip 1080p] MVO Ворон Скачать
1 | 0
Зарубежные сериалы [ 1.52 GB ] Halo: Сумерки / Halo: Nightfall / Сезон: 1 / Серии: 5 из 5 [2014 ... WEBRip] MVO + Original Assasinca Скачать
1 | 0
T Зарубежные сериалы [ 796 MB ] Хэйло: Сумерки / Хэйло: Затмение / Halo: Nightfall / 1 сезон / 1 серия из 5 Alternative Production GEKADOL Скачать
1 | 0


Последний раз редактировалось: coc900 (2015-03-30 18:16), всего редактировалось 2 раз(а)

28-11-2019 20:33  

Отключить всю рекламу на сайте

30-03-2015 18:13 Halo: Сумерки Скачать торрент  

coc900, Чей перевод?
и это мини сериал
http://pb.wtf/topic/172707/
Это лицензия
(Двуголосый профессиональный ,R5) или многоголоска от AlexFilm

вот дороги с блюрей

Цитата:

Аудио 6: Russian / DTS-HD Master Audio / 7.1 / 48 kHz / 4679 kbps / 24-bit (DTS Core: 5.1 / 48 kHz / 1509 kbps / 24-bit) Профессиональный двухголосый R5
Аудио 7: Russian / DTS-HD Master Audio / 7.1 / 48 kHz / 4685 kbps / 24-bit (DTS Core: 5.1 / 48 kHz / 1509 kbps / 24-bit) Профессиональный многоголосый AlexFilm

Короче сделайте сэмпл плиз
pb.wtf





Последний раз редактировалось: Ворон (2015-03-30 18:41), всего редактировалось 1 раз

30-03-2015 18:29 Halo: Сумерки Скачать торрент  

Спартанцы есть в фильме?pb.wtf



    Дорогой пользователь! Огромная просьба, поблагодарите релизера, оцените раздачу и оставьте свои комментарий, если Вы скачали Halo: Сумерки через торрент бесплатно! Внесите свою лепту в развитие PiratBit!
    Комментировать посты могут только пользователи прошедшие не сложную регистрацию
    Показать сообщения:    

    Halo: Сумерки через торрент
    Скачать бесплатно Halo: Сумерки
    Halo: Сумерки скачать торрент
    Halo: Сумерки смотреть онлайн
    Cкачать фильм Halo: Сумерки бесплатно
    Halo: Сумерки скачать торрент в хорошем качестве
    Halo: Сумерки смотреть онлайн бесплатно в хорошем качестве


    Вы не можете начинать темы
    Вы не можете отвечать на сообщения
    Вы не можете редактировать свои сообщения
    Вы не можете удалять свои сообщения
    Вы не можете голосовать в опросах
    Вы не можете прикреплять файлы к сообщениям
    Вы можете скачивать файлы