Мега распродажа FORZA HORIZON 4 ULTIMATE+ВСЕ DLC+ОНЛАЙН всего за 499р. 349 руб. (супер цена). Внимание количество ограничено!!!

iTunes

1+1

iTunes

мы

iTunes

1

1 сезон

Чернобыль

1 сезон

Ральф против интернета

Лицензия

ПШазам

8 сезон

Игра престолов

Лицензия

30
pack

ВАЖНО

!!Акция!!

Alien_RageХит недели

RePack

Resident Evil 21

ИГРА 18+

pack

RePack

Metro:Exodus

!!Акция!!

Alien_Rage

RePack

fifa19

RePack

Assassins Creed: Odyssey

RePack

NEED FOR SPEED™ PAYBACK

3 сезон

9 сезон

Бесстыжие 9 сезон

Все сериалы

все сериалы на PB.wtf

RePack

FAR CRY 5
Ребята, катастрофически не хватает 2730р. для оплаты серверов за ИЮНЬ (всвязи с блокировками трафик упал в 3 раза), 1-2р., выручайте.
  

Из времени во время / From Time to Time (Джулиан Феллоуз) [2009, фэнтези, драма, приключения, BDRip-AVC] DVO pb.wtf

Из времени во время через торрент pb.wtf

Размер: 1.8 GB | Добавлен: 4 года 3 мес. назад | Торрент скачан:149 раз
Скачать  

31-03-2015 08:07 Из времени во время Скачать торрент  

Из времени во время / From Time to Time

Год выпуска: 2009
Страна: Великобритания
Жанр: фэнтези, драма, приключения
Продолжительность: 01:35:54
Перевод: профессиональный двухголосый
Субтитры: русские, английские

Режиссёр: Джулиан Феллоуз

В ролях: Алекс Этель, Мэгги Смит, Тимоти Сполл, Доминик Уэст, Кэрис ван Хаутен, Хью Бонневилль, Дуглас Бут, Элиза Беннетт, Кваедза Курейа, Полин Коллинз, Дэйзи Льюис

Описание: Декабрь 1944 года, Англия. 13-летний Толли отослан к бабушке в её загородное поместье Грин-Ноу, пока его мать занимается поисками сведений о пропавшем без вести на фронте отце. В старинном фамильном особняке Толли вдруг обнаруживает, что может перемещаться в прошлое и становиться свидетелем многих давних событий, о которых ему рассказывает бабушка. Его вовлекают в семейные скандалы и тайны 1805 года, отголоски которых всё ещё слышатся в его собственной эпохе... Фильм снят по роману Люси М. Бостон.



Качество: BDRip-AVC Сравнение с исходником
Формат: MKV
Видео кодек: H.264
Аудио кодек: AC3
Видео: 1997 Кбит/с, 1024x576, 23.976 кадра/с, 0.141 bpp
Аудио 1: русский, AC3, 192 kbps, 2 ch, 48 kHz [профессиональный двухголосый, студия "NLS"]
Аудио 2: английский, AC3, 448 kbps, 6 ch, 48 kHz [оригинал]
frame I:1050 Avg QP:17.33 size: 69262
frame P:25145 Avg QP:18.56 size: 25975
frame B:111758 Avg QP:20.85 size: 6689

Общее
Уникальный идентификатор : 225689687841998410160976295482513967185 (0xA9CA40B7338DD8F7B4CE77D44FD04851)
Полное имя : D:VideoIz vremeni vo vremja.2009.BDRip.AVC.mkv
Формат : Matroska
Версия формата : Version 4 / Version 2
Размер файла : 1,80 Гбайт
Продолжительность : 1 ч. 35 м.
Общий поток : 2690 Кбит/сек
Дата кодирования : UTC 2015-03-30 15:31:00
Программа кодирования : mkvmerge v7.8.0 ('River Man') 64bit built on Mar 27 2015 16:31:37
Библиотека кодирования : libebml v1.3.1 + libmatroska v1.4.2
DURATION : 01:30:03.736000000
NUMBER_OF_FRAMES : 865
NUMBER_OF_BYTES : 40975
_STATISTICS_WRITING_APP : mkvmerge v7.8.0 ('River Man') 64bit built on Mar 27 2015 16:31:37
_STATISTICS_WRITING_DATE_UTC : 2015-03-30 15:31:00
_STATISTICS_TAGS : BPS DURATION NUMBER_OF_FRAMES NUMBER_OF_BYTES

Видео
Идентификатор : 1
Формат : AVC
Формат/Информация : Advanced Video Codec
Профиль формата : High@L4.1
Параметр CABAC формата : Да
Параметр ReFrames формата : 9 кадров
Идентификатор кодека : V_MPEG4/ISO/AVC
Продолжительность : 1 ч. 35 м.
Битрейт : 1997 Кбит/сек
Ширина : 1024 пикселя
Высота : 576 пикселей
Соотношение сторон : 16:9
Режим частоты кадров : Постоянный
Частота кадров : 23,976 кадра/сек
Цветовое пространство : YUV
Субдискретизация насыщенности : 4:2:0
Битовая глубина : 8 бит
Тип развёртки : Прогрессивная
Бит/(Пиксели*Кадры) : 0.141
Размер потока : 1,34 Гбайт (74%)
Заголовок : BDRip -- STarankov
Библиотека кодирования : x264 core 142 r2431 ac76440
Настройки программы : cabac=1 / ref=9 / deblock=1:-1:-1 / analyse=0x3:0x113 / me=umh / subme=10 / psy=1 / psy_rd=1.00:0.15 / mixed_ref=1 / me_range=32 / chroma_me=1 / trellis=2 / 8x8dct=1 / cqm=0 / deadzone=21,11 / fast_pskip=1 / chroma_qp_offset=-3 / threads=6 / lookahead_threads=1 / sliced_threads=0 / nr=0 / decimate=1 / interlaced=0 / bluray_compat=0 / constrained_intra=0 / bframes=12 / b_pyramid=2 / b_adapt=2 / b_bias=0 / direct=3 / weightb=1 / open_gop=0 / weightp=2 / keyint=230 / keyint_min=23 / scenecut=40 / intra_refresh=0 / rc_lookahead=40 / rc=crf / mbtree=0 / crf=19.5 / qcomp=0.60 / qpmin=0 / qpmax=69 / qpstep=4 / vbv_maxrate=40000 / vbv_bufsize=50000 / crf_max=0.0 / nal_hrd=none / filler=0 / ip_ratio=1.40 / pb_ratio=1.30 / aq=1:1.00
Язык : English
Default : Да
Forced : Нет
DURATION : 01:35:53.790000000
NUMBER_OF_FRAMES : 137953
NUMBER_OF_BYTES : 1473439637
_STATISTICS_WRITING_APP : mkvmerge v7.8.0 ('River Man') 64bit built on Mar 27 2015 16:31:37
_STATISTICS_WRITING_DATE_UTC : 2015-03-30 15:31:00
_STATISTICS_TAGS : BPS DURATION NUMBER_OF_FRAMES NUMBER_OF_BYTES

Аудио #1
Идентификатор : 2
Формат : AC-3
Формат/Информация : Audio Coding 3
Расширение режима : CM (complete main)
Параметр Endianness формата : Big
Идентификатор кодека : A_AC3
Продолжительность : 1 ч. 35 м.
Вид битрейта : Постоянный
Битрейт : 192 Кбит/сек
Каналы : 2 канала
Расположение каналов : Front: L R
Частота : 48,0 КГц
Битовая глубина : 16 бит
Метод сжатия : С потерями
Размер потока : 132 Мбайт (7%)
Заголовок : DVO (студия "NLS")
Язык : Russian
Default : Да
Forced : Нет

Аудио #2
Идентификатор : 3
Формат : AC-3
Формат/Информация : Audio Coding 3
Расширение режима : CM (complete main)
Параметр Endianness формата : Big
Идентификатор кодека : A_AC3
Продолжительность : 1 ч. 35 м.
Вид битрейта : Постоянный
Битрейт : 448 Кбит/сек
Каналы : 6 каналов
Расположение каналов : Front: L C R, Side: L R, LFE
Частота : 48,0 КГц
Битовая глубина : 16 бит
Метод сжатия : С потерями
Размер потока : 307 Мбайт (17%)
Заголовок : Original
Язык : English
Default : Нет
Forced : Нет

Текст #1
Идентификатор : 4
Формат : UTF-8
Идентификатор кодека : S_TEXT/UTF8
Идентификатор кодека/Информация : UTF-8 Plain Text
Заголовок : русские
Язык : Russian
Default : Нет
Forced : Нет

Текст #2
Идентификатор : 5
Формат : UTF-8
Идентификатор кодека : S_TEXT/UTF8
Идентификатор кодека/Информация : UTF-8 Plain Text
Заголовок : английские
Default : Нет
Forced : Нет
pb.wtf



Скачать Из времени во время через торрент http://i58.fastpic.ru/big/2015/0331/ba/1c514fa9b19a57908f56cda0bc4d8bba.jpg Скачать фильм Из времени во время через торрент бесплантно в хорошем качестве Описание: Декабрь 1944 года, Англия. 13-летний Толли отослан к бабушке в её загородное поместье Грин-Ноу, пока его мать занимается поисками ... 10 10 8
Info! Золотая раздача, скачанное не засчитывается.
Торрент: Зарегистрирован [2015-03-31 08:07] · скачан: 149 раз
Статус: √ проверено
Размер: 1.8 GB
Как cкачать? Как скачать Из времени во время через торрент | qTorrent

% Раздел Тема Автор DL S | L
Фильмы [HD 720p, 1080p] (Хороший звук DUB, MVO) [ 3.09 GB ] Из времени во время / From Time to Time [2009 BDRip 720p] DVO msltel Скачать
1 | 0


>> Регистрируемся здесь <<






Отзывы и комментарии о схеме читаем и пишем здесь: ---> Отзывы и комментарии о схеме

Новые благодарочки в телеграм довольных пользователей:
скриншот   скриншот   скриншот   скриншот   скриншот
    Дорогой пользователь! Огромная просьба, поблагодарите релизера, оцените раздачу и оставьте свои комментарий, если Вы скачали Из времени во время через торрент бесплатно! Внесите свою лепту в развитие PiratBit!
    Комментировать посты могут только пользователи прошедшие не сложную регистрацию
    Показать сообщения:    

    Из времени во время через торрент
    Скачать бесплатно Из времени во время
    Из времени во время скачать торрент
    Из времени во время смотреть онлайн
    Cкачать фильм Из времени во время бесплатно
    Из времени во время скачать торрент в хорошем качестве
    Из времени во время смотреть онлайн бесплатно в хорошем качестве


    Вы не можете начинать темы
    Вы не можете отвечать на сообщения
    Вы не можете редактировать свои сообщения
    Вы не можете удалять свои сообщения
    Вы не можете голосовать в опросах
    Вы не можете прикреплять файлы к сообщениям
    Вы можете скачивать файлы