Всегда рабочее зеркало без VPN и Proxy просто перед .vidak.icu напиши любое слово или цифру, Пример http://y4g.vidak.icu

>

7.4

iTunes

7.4

2 сезон

6.6

iTunes

1

7.4

2 сезон

7.2

iTunes

6.0

MVO

13

6.1

iTunes

8.3

Пиратка

30

ULTIMATE

pack

9.9

Лицензия

ВАЖНО

ИГРА 18+

pack

7.3

RePack

MK11

7.7

RePack

jed

7.8

RePack

fifa19

8.5

RePack

RDR2

RePack

NEED FOR SPEED™ PAYBACK

1 сезон

9 сезон

Бесстыжие 9 сезон

Все сериалы

все сериалы на PB.wtf

RePack

FAR CRY 5

Anonymous, добрый день, мы катастрофически не успеваем собрать деньги на оплату серверов, помогите нам пожалуйста 5,10,15р., для нас важна любая помощь . В качестве благодарности мы отключим Вам всю рекламу на сайте (укажите свой ник в строку Ваше имя)!

×
  
Magnet ссылка

В спальне / In the Bedroom (Тодд Филд / Todd Field) [2001, драма, криминал, DVDRip] [AVO] (Ю.Сербин) + [Sub] + [Orig] (Eng) pb.wtf

В спальне через торрент pb.wtf

Размер: 1.34 GB | Добавлен: 6 лет 9 мес. назад | Торрент скачан:8 раз
Смотреть онлайн В спальне | Скачать    Ребята, помогите собрать деньги на оплату серверов!!!

31-03-2015 17:03 В спальне Скачать торрент  


В спальне / In the Bedroom

Год выпуска: 2001
Страна: США
Жанр: драма, криминал
Продолжительность: 02:05:35
Перевод: Авторский (одноголосный) [Юрий Сербин]
субтитры: русские
Оригинальная аудиодорожка: английский

Режиссер: Тодд Филд / Todd Field

В ролях: Том Уилкинсон, Мариса Томей, Сисси Спейсек, Ник Стал, Уильям Мапотер, Уильям Уайз, Селия Уэстон, Карен Аллен, Фрэнк Т. Уэллс, У. Клэпэм Мюррей

Описание: Размеренная жизнь доктора Мэтта Фаулера и его жены Рут нарушается, когда у их юного сына Фрэнка завязываются романтические отношения с Нэтэли Страут, взрослой матерью двух детей. Нэтэли пытается порвать со своим супругом Уильямом, который сходит с ума, видя свою жену в объятиях молодого парня. Не ожидая от этого неравного союза ничего, кроме неприятностей, Фаулеры умоляют Фрэнка разобраться в своих чувствах, но он продолжает встречаться с Нэтэли, и вскоре слепая ревность Уильяма становится причиной немыслимой и нелепой трагедии…



Качество: DVDRip [исх. DVD5]
Формат: AVI
Видео кодек: XviD
Аудио кодек: MP3, AC3
Видео: 720x528 (1.36:1), 25 fps, XviD build 47 ~1222 kbps avg, 0.13 bit/pixel
Аудио #1: 48 kHz, MPEG Layer 3, 2 ch, ~128.00 kbps avg [Юрий Сербин]
Аудио #2: 48 kHz, AC3 Dolby Digital, 2/0 (L,R) ch, ~160.00 kbps avg [оригинал]
Видеоряд от felikz -- Спасибо!
За дорожку авторского перевода Юрия Сербина большое Спасибо -- ackris!

Цитата:

перевод от пирамиды (VHSrip)

General
Complete name : E:\INTERNET\In the Bedroom.2001.DVDrip.[AVO](Serbin).Km\In the Bedroom.2001.DVDrip.[AVO](Serbin).Km.avi
Format : AVI
Format/Info : Audio Video Interleave
File size : 1.34 GiB
Duration : 2h 5mn
Overall bit rate : 1 526 Kbps
Writing application : VirtualDubMod 1.5.10.3 (build 2550/release)
Writing library : VirtualDubMod build 2550/release

Video
ID : 0
Format : MPEG-4 Visual
Format profile : Advanced Simple@L5
Format settings, BVOP : 1
Format settings, QPel : No
Format settings, GMC : No warppoints
Format settings, Matrix : Default (H.263)
Codec ID : XVID
Codec ID/Hint : XviD
Duration : 2h 5mn
Bit rate : 1 223 Kbps
Width : 720 pixels
Height : 528 pixels
Display aspect ratio : 4:3
Frame rate : 25.000 fps
Color space : YUV
Chroma subsampling : 4:2:0
Bit depth : 8 bits
Scan type : Progressive
Compression mode : Lossy
Bits/(Pixel*Frame) : 0.129
Stream size : 1.07 GiB (80%)
Writing library : XviD 1.2.0.dev47 (UTC 2006-11-01)

Audio #1
ID : 1
Format : MPEG Audio
Format version : Version 1
Format profile : Layer 3
Mode : Joint stereo
Codec ID : 55
Codec ID/Hint : MP3
Duration : 2h 5mn
Bit rate mode : Constant
Bit rate : 128 Kbps
Channel(s) : 2 channels
Sampling rate : 48.0 KHz
Compression mode : Lossy
Delay relative to video : 1s 632ms
Stream size : 115 MiB (8%)
Alignment : Split accross interleaves
Interleave, duration : 40 ms (1.00 video frame)
Interleave, preload duration : 504 ms

Audio #2
ID : 2
Format : AC-3
Format/Info : Audio Coding 3
Mode extension : CM (complete main)
Codec ID : 2000
Duration : 2h 5mn
Bit rate mode : Constant
Bit rate : 160 Kbps
Channel(s) : 2 channels
Channel positions : Front: L R
Sampling rate : 48.0 KHz
Bit depth : 16 bits
Compression mode : Lossy
Stream size : 144 MiB (10%)
Alignment : Split accross interleaves
Interleave, duration : 40 ms (1.00 video frame)
Interleave, preload duration : 500 ms

[/code]
pb.wtf



Скачать В спальне через торрент http://i66.fastpic.ru/big/2015/0331/b4/98fabbc89343a19d29ae931873fd52b4.jpg Скачать, смотреть онлайн В спальне бесплантно в хорошем качестве Описание: Размеренная жизнь доктора Мэтта Фаулера и его жены Рут нарушается, когда у их юного сына Фрэнка завязываются романтические ... 10 10 2
Торрент: Зарегистрирован [2015-03-31 17:03] · скачан: 8 раз
Статус: √ проверено
Размер: 1.34 GB
Как cкачать? Как скачать В спальне через торрент | UTorrent

% Раздел Тема Автор DL S | L
Фильмы 2001-2005 [ 1.46 GB ] В спальне / In the Bedroom [2001 DVDRip] shuller Скачать
1 | 0

28-11-2019 20:33  

Отключить всю рекламу на сайте

    Дорогой пользователь! Огромная просьба, поблагодарите релизера, оцените раздачу и оставьте свои комментарий, если Вы скачали В спальне через торрент бесплатно!
    Комментировать посты могут только пользователи прошедшие не сложную регистрацию
    Показать сообщения:    

    В спальне через торрент
    Скачать бесплатно В спальне
    В спальне скачать торрент
    В спальне смотреть онлайн
    Cкачать фильм В спальне бесплатно
    В спальне скачать торрент в хорошем качестве
    В спальне смотреть онлайн бесплатно в хорошем качестве


    Вы не можете начинать темы
    Вы не можете отвечать на сообщения
    Вы не можете редактировать свои сообщения
    Вы не можете удалять свои сообщения
    Вы не можете голосовать в опросах
    Вы не можете прикреплять файлы к сообщениям
    Вы можете скачивать файлы