Всегда рабочее зеркало без VPN и Proxy просто перед .vidak.icu напиши любое слово или цифру, Пример http://at57.vidak.icu

Лицензия

MVO

1 сезон

1

1 сезон

iTunes

1 сезон

13

1 сезон

Deluxe

pack

Рекомендуем

Repack

30

ВАЖНО

RePack

MK11

RePack

jed

RePack

fifa19

RePack

RDR2

RePack

NEED FOR SPEED™ PAYBACK

Кинопоиск HD

6 сезон

 Острые козырьки 6 сезон

Все сериалы

все сериалы на PB.wtf

RePack

FAR CRY 5
  
Magnet ссылка

Город героев / Big Hero 6 (Дон Холл, Крис Уильямс) [2014 г., мультфильм, фантастика, комедия, семейный, боевик, HDRip, Дубляж "Лицензия"] pb.wtf

Город героев через торрент pb.wtf

Размер: 2.06 GB | Добавлен: 7 лет 4 мес. назад | Торрент скачан:609 раз
Смотреть онлайн Город героев | Скачать    Ребята, помогите собрать деньги на оплату серверов!!!

31-03-2015 18:22 Город героев Скачать торрент  

Город героев / Big Hero 6
Год выпуска: 2014
Страна: США / Walt Disney Animation Studios, Walt Disney Pictures
Жанр: мультфильм, фантастика, комедия, семейный, боевик
Продолжительность: 01:41:52
Перевод: Дубляж (Лицензия)

Режиссер: Дон Холл, Крис Уильямс

IMDB 8.00 (141 706)


В ролях: Райан Поттер, Скотт Эдсит, Дэниэл Хенни, ТиДжей Миллер, Джейми Чанг, Дэймон Уайанс мл., Дженезис Родригез, Джеймс Кромуэлл, Алан Тьюдик, Майя Рудольф, Даниил Рагин, Максим Сергеев, Игорь Сергеев, Валерий Смекалов, Аделина Червякова

Описание: Юный Хиро Хамада — прирожденный изобретатель и гений конструирования роботов. Вместе со старшим братом Тадаши они воплощают в жизнь самые передовые идеи в Техническом университете города будущего Сан-Франсокио. После серии загадочных событий друзья оказываются в центре коварного заговора. Отчаявшись, Хиро решает использовать веселого и добродушного экспериментального робота Бэймакса, перепрограммировав его в неуязвимую боевую машину.

Качество: HDRip
Формат: AVI
Видео кодек: XviD
Аудио кодек: AC3
Видео: 720x304 (2.37:1), 23.976 fps, XviD build 50 ~2436 kbps avg, 0.46 bit/pixel
Аудио: 48 kHz, AC3 Dolby Digital, 3/2 (L,C,R,l,r) + LFE ch, ~448 kbps

скриншот   скриншот   скриншот   скриншот   скриншот   скриншот  

Общее
Полное имя : F:\кино\Город героев.2014.HDRip.avi
Формат : AVI
Формат/Информация : Audio Video Interleave
Профиль формата : OpenDML
Размер файла : 2,06 Гбайт
Продолжительность : 1 ч. 41 м.
Общий поток : 2891 Кбит/сек
Программа кодирования : VirtualDubMod 1.5.10.3 | www.virtualdub-fr.org || (build 2550/release)
Библиотека кодирования : VirtualDubMod build 2550/release

Видео
Идентификатор : 0
Формат : MPEG-4 Visual
Профиль формата : Advanced [email protected]
Параметр BVOP формата : 2
Параметр QPel формата : Нет
Параметр GMC формата : Без точки перехода
Параметр матрицы формата : Default (H.263)
Идентификатор кодека : XVID
Идентификатор кодека/Подсказка : XviD
Продолжительность : 1 ч. 41 м.
Битрейт : 2431 Кбит/сек
Ширина : 720 пикселей
Высота : 304 пикселя
Соотношение сторон : 2,35:1
Частота кадров : 23,976 кадра/сек
Цветовое пространство : YUV
Субдискретизация насыщенности : 4:2:0
Битовая глубина : 8 бит
Тип развёртки : Прогрессивная
Метод сжатия : С потерями
Бит/(Пиксели*Кадры) : 0.463
Размер потока : 1,73 Гбайт (84%)
Библиотека кодирования : XviD 1.2.1 (UTC 2008-12-04)

Аудио
Идентификатор : 1
Формат : AC-3
Формат/Информация : Audio Coding 3
Расширение режима : CM (complete main)
Параметр Endianness формата : Big
Идентификатор кодека : 2000
Продолжительность : 1 ч. 41 м.
Вид битрейта : Постоянный
Битрейт : 448 Кбит/сек
Каналы : 6 каналов
Расположение каналов : Front: L C R, Side: L R, LFE
Частота : 48,0 КГц
Битовая глубина : 16 бит
Метод сжатия : С потерями
Размер потока : 326 Мбайт (15%)
Выравнивание : Разделение по промежуткам
Продолжительность промежутка : 42 мс. (1,00 видеокадр)
Время предзагрузки промежутка : 500 мс.

pb.wtf



Скачать Город героев через торрент https://pic1.kartinco.top/images/10/ogpx4.jpg Скачать, смотреть онлайн Город героев бесплантно в хорошем качестве Описание: Юный Хиро Хамада — прирожденный изобретатель и гений конструирования роботов. Вместе со старшим братом Тадаши они воплощают в ... 10 10 15
Торрент: Зарегистрирован [2015-03-31 18:22] · скачан: 609 раз
Статус: √ проверено
Размер: 2.06 GB
Как cкачать? Как скачать Город героев через торрент | UTorrent

% Раздел Тема Автор DL S | L
Ultra HD (UHD: 2K, 4K, 8K) [ 18.58 GB ] Город героев / Big Hero 6 [2014 Мультфильм UHD BDRip 2160p] [SDR] DUB [] bober100 Скачать
1 | 0
Ultra HD (UHD: 2K, 4K, 8K) [ 11.02 GB ] Город героев / Big Hero 6 [2014 Мультфильм UHD BDRip 2160p] DUB [] bober100 Скачать
1 | 0
Ultra HD (UHD: 2K, 4K, 8K) [ 54.67 GB ] Город героев / Big Hero 6 [2014 Мультфильм UHD BDRemux 2160p] DUB [] +2xAVO bober100 Скачать
1 | 0
Мультсериалы [ 21.2 GB ] Город героев: Новая история / Big Hero 6 The Series / Сезон: 1 / Серии: 1-22 из 22 [2017 WEBRip 1080p] DUB [Disney] bober100 Скачать
2 | 0
Мультсериалы [ 16.94 GB ] Город героев: Новая история / Big Hero 6 The Series / Сезон: 1 / Серии: 1-22 из 22 [2017 WEB-DL 720p] DUB [Disney] bober100 Скачать
2 | 0
Зарубежные Мультфильмы (WEB-DL 720p, 1080p) [ 4.01 GB ] Город героев / Big Hero 6 [2014 мультфильм BDRip 720p] DUB potroks Скачать
1 | 0
3D Мультфильмы [ 10.49 GB ] Город героев / Big Hero 6 [2014 Мультфильм BDrip 1080p] OverUnder / Вертикальная стереопара serega768 Скачать
1 | 0

28-11-2019 20:33  

Отключить вcю реклaмy на сайте

31-03-2015 19:46 Город героев Скачать торрент  

Хороший мульт! Очень рекомендую к просмотру.pb.wtf



    Дорогой пользователь! Огромная просьба, поблагодарите релизера, оцените раздачу и оставьте свои комментарий, если Вы скачали Город героев через торрент бесплатно!
    Комментировать посты могут только пользователи прошедшие не сложную регистрацию
    Показать сообщения:    

    Город героев через торрент
    Скачать бесплатно Город героев
    Город героев скачать торрент
    Город героев смотреть онлайн
    Cкачать фильм Город героев бесплатно
    Город героев скачать торрент в хорошем качестве
    Город героев смотреть онлайн бесплатно в хорошем качестве


    Вы не можете начинать темы
    Вы не можете отвечать на сообщения
    Вы не можете редактировать свои сообщения
    Вы не можете удалять свои сообщения
    Вы не можете голосовать в опросах
    Вы не можете прикреплять файлы к сообщениям
    Вы можете скачивать файлы