Ссылка на приватное зеркало нашего сайта всего за 1$. Внимание количество ограничено!!!

2 сезон

iTunes

1 сезон

1

iTunes

iTunes

iTunes

1 сезон

RePack

30

ИГРА 18+

pack

ВАЖНО

!!Акция!!

Alien_RageХит недели

RePack

MK11
pack

Забери бонус

RePack

jed

!!Акция!!

Alien_Rage

RePack

fifa19

RePack

Assassins Creed: Odyssey

RePack

NEED FOR SPEED™ PAYBACK

4 сезон

9 сезон

Бесстыжие 9 сезон

Все сериалы

все сериалы на PB.wtf

RePack

FAR CRY 5
  

Закрытая Школа / Сезон: 1 Серии: 1-20 из 20 (Олег Асадулин, Константин Статский, Андрей Записов) [2011, триллер, драма, детектив, 2xDVD9] R5 «Мистерия Звука» pb.wtf

Закрытая Школа через торрент pb.wtf

Размер: 15.02 GB | Добавлен: 5 лет 6 мес. назад | Торрент скачан:33 раза
Скачать  

11-11-2011 21:48 Закрытая Школа Скачать торрент  


Закрытая школа
«Выпускного не будет»
Страна: Россия
Студия: АМЕДИА
Жанр: триллер, драма, детектив
Год выпуска: 2011
Мировая премьера: 15 мая 2011
Российская премьера: 11 апреля 2011
Дата выхода DVD: 3 ноября 2011, «Мистерия Звука»
Продолжительность: 20 х 00:47:59
Перевод: Оригинал [Лицензия]
Cубтитры: нет
Оригинальная аудиодорожка: русский
Режиссер: Олег Асадулин, Константин Статский, Андрей Записов
В ролях: Антон Хабаров, Татьяна Васильева, Михаил Сафронов, Юлия Агафонова, Ксения Энтелис, Виталий Емашов, Иван Гордиенко, Марина Казанкова, Алексей Коряков, Павел Прилучный, Агата Муцениеце, Татьяна Космачева, Игорь Юртаев, Андрей Негинский, Евгения Осипова, Алина Васильева, Луиза-Габриэла Бровина, Ирина Крутик, Александр Яцко, Дэвид Аласания, Александр Рапопорт, Михаил Ремизов, Владимир Носик, Иван Непомнящий, Сергей Походаев, Поля Полякова, Константин Стрельников
Описание: Сериал рассказывает о жизни учеников и преподавателей элитной школы-интерната, расположенной в старинной усадьбе посреди мрачного, но живописного леса. В их замкнутом мире все переживания намного острее, чем в обычной школьной жизни. Несмотря на внешнее благополучие, ребята, оторванные от родного дома, очень ранимы и зачастую одиноки. По вечерам они рассказывают друг другу страшные легенды о лесе, глухой стеной окружающем их школу, говорят, будто в нем водятся странные существа и бесследно пропадают люди. Очень скоро ребята узнают, что правда гораздо страшнее легенд.
Бонусы: нет

Релиз группы:
Качество: 2xDVD9 R5
Формат: DVD-Video
Видео кодек: MPEG2
Аудио кодек: AC3
Видео: PAL 4:3 (352x576(1.374)) MPEG Video, 25,000 кадр/сек, 6965 Кбит/сек
Аудио: Russian (Dolby AC3, 2 ch) 160 Кбит/сек, 48,0 КГц



Title: Disk 1
Size: 7.39 Gb ( 7 752 920 KBytes ) - DVD-9
Enabled regions: 1, 2, 3, 4, 5, 6, 7, 8

VTS_01 :
Play Length: 00:00:15
Video: PAL 4:3 (720x576) VBR
Audio:
Russian (Dolby AC3, 2 ch)

VTS_02 :
Play Length: 08:29:32
Video: PAL 4:3 (720x576) CBR
Audio:
Russian (Dolby AC3, 2 ch)

Menu Video:
PAL 4:3 (720x576) VBR
Auto Pan&Scan, Auto Letterboxed
Menu Russian Language Unit :
Root Menu
Chapter (PTT) Menu
Title:
Size: 7.63 Gb ( 7 998 096 KBytes ) - DVD-9
Enabled regions: 1, 2, 3, 4, 5, 6, 7, 8

VTS_01 :
Play Length: 00:00:15
Video: PAL 4:3 (720x576) VBR
Audio:
Russian (Dolby AC3, 2 ch)

VTS_02 :
Play Length: 08:45:44
Video: PAL 4:3 (720x576) CBR
Audio:
Russian (Dolby AC3, 2 ch)

Menu Video:
PAL 4:3 (720x576) VBR
Auto Pan&Scan, Auto Letterboxed
Menu Russian Language Unit :
Root Menu
Chapter (PTT) Menu
Общее
Полное имя : G:\Новинки 2011\Zakrytaja.shkola.(01-20.serii.iz.20).2011.2xDVD9\DVD-1\VIDEO_TS\VTS_02_5.VOB
Формат : MPEG-PS
Размер файла : 1024 Мбайт
Продолжительность : 19 м.
Общий поток : 7270 Кбит/сек

Видео
Идентификатор : 224 (0xE0)
Формат : MPEG Video
Версия формата : Version 2
Профиль формата : Main@Main
Параметр BVOP формата : Да
Параметр матрицы формата : Выборочная
Параметр GOP формата : M=3, N=15
Продолжительность : 19 м.
Вид битрейта : Переменный
Битрейт : 6965 Кбит/сек
Максимальный битрейт : 8000 Кбит/сек
Ширина : 352 пикселя
Высота : 576 пикселей
Соотношение сторон : 4:3
Частота кадров : 25,000 кадров/сек
Стандарт вещания : PAL
Цветовое пространство : YUV
Субдискретизация насыщенности : 4:2:0
Битовая глубина : 8 бит
Тип развёртки : Чересстрочная
Порядок развёртки : Верхнее поле первое
Метод сжатия : С потерями
Бит/(Пиксели*Кадры) : 1.374
Размер потока : 981 Мбайт (96%)

Аудио
Идентификатор : 189 (0xBD)-128 (0x80)
Формат : AC-3
Формат/Информация : Audio Coding 3
Расширение режима : CM (complete main)
Режим смешивания : DVD-Video
Продолжительность : 19 м.
Вид битрейта : Постоянный
Битрейт : 160 Кбит/сек
Каналы : 2 канала
Расположение каналов : Front: L R
Частота : 48,0 КГц
Битовая глубина : 16 бит
Метод сжатия : С потерями
Задержка видео : -760 мс.
Размер потока : 22,5 Мбайт (2%)




pb.wtf



Скачать Закрытая Школа через торрент http://i1.imageban.ru/out/2011/11/11/8534cc7b8ffb8a54eb9fb73402dae94f.jpg Скачать фильм Закрытая Школа через торрент бесплантно в хорошем качестве Описание: Сериал рассказывает о жизни учеников и преподавателей элитной школы-интерната, расположенной в старинной усадьбе посреди ... 10 10 8
Торрент: Зарегистрирован [2015-03-31 22:08] · скачан: 33 раз
Статус: √ проверено
Размер: 15.02 GB
Как cкачать? Как скачать Закрытая Школа через торрент | qTorrent

28-11-2019 20:33  

Отключить всю рекламу на сайте

11-11-2011 22:48 Закрытая Школа Скачать торрент  

Плагиат вышел даже лучше оригинала, жаль, что еще не досняли до конца. Закончил смотреть сезон еще пару месяцев назад и доволен до сих пор, в ожидании следуюющих серий. Сериал сугубо на любителя ибо тут намешали и драму, и триллер, и мистику и еще фиг знает чего. Так, что если вы любите все жанры но в меру то этот сериал самое то.pb.wtf



12-11-2011 08:17 Закрытая Школа Скачать торрент  

Кто нибудь раздает?pb.wtf



30-08-2014 07:34 Закрытая Школа Скачать торрент  

Спасибо что вернулся ;)pb.wtf



09-08-2017 08:07 Закрытая Школа Скачать торрент  

спасибоpb.wtf



09-08-2017 16:29 Закрытая Школа Скачать торрент  

ЖАЛКИЙ ПЛАГИАТ ! ОТВРАТИТЕЛЬНАЯ ИГРА АКТЁРОВ ! УБОГИЙ СПЕКТАКЛЬ !pb.wtf



    Дорогой пользователь! Огромная просьба, поблагодарите релизера, оцените раздачу и оставьте свои комментарий, если Вы скачали Закрытая Школа через торрент бесплатно! Внесите свою лепту в развитие PiratBit!
    Комментировать посты могут только пользователи прошедшие не сложную регистрацию
    Показать сообщения:    

    Закрытая Школа через торрент
    Скачать бесплатно Закрытая Школа
    Закрытая Школа скачать торрент
    Закрытая Школа смотреть онлайн
    Cкачать фильм Закрытая Школа бесплатно
    Закрытая Школа скачать торрент в хорошем качестве
    Закрытая Школа смотреть онлайн бесплатно в хорошем качестве


    Вы не можете начинать темы
    Вы не можете отвечать на сообщения
    Вы не можете редактировать свои сообщения
    Вы не можете удалять свои сообщения
    Вы не можете голосовать в опросах
    Вы не можете прикреплять файлы к сообщениям
    Вы можете скачивать файлы