MEGA SALE -75% Borderlands 3 Super Deluxe всего за 550р. 180 руб. (супер цена). Внимание количество ограничено!!!

iTunes

1+1

iTunes

мы

iTunes

1

iTunes

Чернобыль

iTunes

Ральф против интернета

Лицензия

ПШазам

Лицензия

Игра престолов

Лицензия

30
pack

ВАЖНО

!!Акция!!

Alien_RageХит недели

RePack

Resident Evil 21

ИГРА 18+

pack

RePack

Metro:Exodus

!!Акция!!

Alien_Rage

RePack

fifa19

RePack

Assassins Creed: Odyssey

RePack

NEED FOR SPEED™ PAYBACK

3 сезон

9 сезон

Бесстыжие 9 сезон

Все сериалы

все сериалы на PB.wtf

RePack

FAR CRY 5
Ребята, катастрофически не хватает 1900р. для оплаты серверов за АВГУСТ (всвязи с блокировками трафик упал в 3 раза), 1-2р., выручайте.
  

Прямой репортаж о смерти / La Mort en direct (Бертран Тавернье) [1980, фантастика, драма, BDRip-AVC] MVO pb.wtf

Прямой репортаж о смерти через торрент pb.wtf

Размер: 2.27 GB | Добавлен: 4 года 6 мес. назад | Торрент скачан:16 раз
Скачать  

01-04-2015 10:39 Прямой репортаж о смерти Скачать торрент  

Прямой репортаж о смерти / La Mort en direct

Год выпуска: 1980
Страна: Франция, Германия (ФРГ)
Жанр: фантастика, драма
Продолжительность: 02:10:26
Перевод: профессиональный многоголосый
Субтитры: нет

Режиссёр: Бертран Тавернье

В ролях: Роми Шнайдер, Харви Кейтель, Гарри Дин Стэнтон, Тереза Лиотар, Макс фон Сюдов, Кэролайн Лэнгриш, Вадим Гловна, Ева Мария Майнеке, Бернхард Викки

Описание: Действие фильма происходит в окрестностях Глазго в недалёком будущем. Некий телевизионный босс решает показать зрителям сенсационный репортаж о последних часах жизни человека. Выбор падает на писательницу Катрин. Репортёру Родди, взявшемуся за это грязное дело, в мозг монтируют минипередатчик, а глаза служат объективами. Но Родди увлекается жертвой и, чтобы спасти её, ослепляет себя... Фильм снят по роману "The Continuous Katherine Mortenhoe" Дэвида Комптона.



Качество: BDRip-AVC Сравнение с исходником
Формат: MKV
Видео кодек: H.264
Аудио кодек: AC3
Видео: 2055 Кбит/с, 1024x436, 23.976 кадра/с, 0.192 bpp
Аудио 1: русский, AC3, 192 kbps, 4 ch, 48 kHz [профессиональный многоголосый]
Аудио 2: английский, AC3, 192 kbps, 2 ch, 48 kHz [оригинал]
Сезар, 1981 год
Номинации (5):
Лучший адаптированный или оригинальный сценарий
Лучшая работа оператора
Лучший звук
Лучший монтаж
Лучший саундтрек

Берлинский кинофестиваль, 1980 год
Номинации (1):
Золотой Медведь
frame I:1100 Avg QP:14.87 size: 60364
frame P:34045 Avg QP:16.25 size: 24276
frame B:152513 Avg QP:18.33 size: 7637

Общее
Уникальный идентификатор : 243895896502128801992359612363246635655 (0xB77CA41B1C18BE0698123015A6478A87)
Полное имя : D:VideoPrjamoj reportag o smerti.1980.BDRip.AVC.mkv
Формат : Matroska
Версия формата : Version 4 / Version 2
Размер файла : 2,27 Гбайт
Продолжительность : 2 ч. 10 м.
Общий поток : 2489 Кбит/сек
Дата кодирования : UTC 2015-04-01 03:31:57
Программа кодирования : mkvmerge v7.8.0 ('River Man') 64bit built on Mar 27 2015 16:31:37
Библиотека кодирования : libebml v1.3.1 + libmatroska v1.4.2
DURATION : 02:10:25.824000000
NUMBER_OF_FRAMES : 244557
NUMBER_OF_BYTES : 187819776
_STATISTICS_WRITING_APP : mkvmerge v7.8.0 ('River Man') 64bit built on Mar 27 2015 16:31:37
_STATISTICS_WRITING_DATE_UTC : 2015-04-01 03:31:57
_STATISTICS_TAGS : BPS DURATION NUMBER_OF_FRAMES NUMBER_OF_BYTES

Видео
Идентификатор : 1
Формат : AVC
Формат/Информация : Advanced Video Codec
Профиль формата : High@L4.1
Параметр CABAC формата : Да
Параметр ReFrames формата : 9 кадров
Идентификатор кодека : V_MPEG4/ISO/AVC
Продолжительность : 2 ч. 10 м.
Битрейт : 2055 Кбит/сек
Ширина : 1024 пикселя
Высота : 436 пикселей
Соотношение сторон : 2,35:1
Режим частоты кадров : Постоянный
Частота кадров : 23,976 кадра/сек
Цветовое пространство : YUV
Субдискретизация насыщенности : 4:2:0
Битовая глубина : 8 бит
Тип развёртки : Прогрессивная
Бит/(Пиксели*Кадры) : 0.192
Размер потока : 1,87 Гбайт (83%)
Заголовок : BDRip -- STarankov
Библиотека кодирования : x264 core 146 r2538 121396c
Настройки программы : cabac=1 / ref=9 / deblock=1:-1:-1 / analyse=0x3:0x113 / me=umh / subme=10 / psy=1 / psy_rd=1.00:0.15 / mixed_ref=1 / me_range=32 / chroma_me=1 / trellis=2 / 8x8dct=1 / cqm=0 / deadzone=21,11 / fast_pskip=1 / chroma_qp_offset=-3 / threads=6 / lookahead_threads=1 / sliced_threads=0 / nr=0 / decimate=1 / interlaced=0 / bluray_compat=0 / constrained_intra=0 / bframes=11 / b_pyramid=2 / b_adapt=2 / b_bias=0 / direct=3 / weightb=1 / open_gop=0 / weightp=2 / keyint=230 / keyint_min=23 / scenecut=40 / intra_refresh=0 / rc_lookahead=40 / rc=crf / mbtree=0 / crf=18.0 / qcomp=0.60 / qpmin=0 / qpmax=69 / qpstep=4 / vbv_maxrate=40000 / vbv_bufsize=50000 / crf_max=0.0 / nal_hrd=none / filler=0 / ip_ratio=1.40 / pb_ratio=1.30 / aq=1:1.00
Язык : English
Default : Да
Forced : Нет
DURATION : 02:10:26.903000000
NUMBER_OF_FRAMES : 187658
NUMBER_OF_BYTES : 2057601799
_STATISTICS_WRITING_APP : mkvmerge v7.8.0 ('River Man') 64bit built on Mar 27 2015 16:31:37
_STATISTICS_WRITING_DATE_UTC : 2015-04-01 03:31:57
_STATISTICS_TAGS : BPS DURATION NUMBER_OF_FRAMES NUMBER_OF_BYTES

Аудио #1
Идентификатор : 2
Формат : AC-3
Формат/Информация : Audio Coding 3
Расширение режима : CM (complete main)
Параметр Endianness формата : Big
Идентификатор кодека : A_AC3
Продолжительность : 2 ч. 10 м.
Вид битрейта : Постоянный
Битрейт : 192 Кбит/сек
Каналы : 4 канала
Расположение каналов : Front: L C R, LFE
Частота : 48,0 КГц
Битовая глубина : 16 бит
Метод сжатия : С потерями
Размер потока : 179 Мбайт (8%)
Заголовок : MVO
Язык : Russian
Default : Да
Forced : Нет

Аудио #2
Идентификатор : 3
Формат : AC-3
Формат/Информация : Audio Coding 3
Расширение режима : CM (complete main)
Параметр Endianness формата : Big
Идентификатор кодека : A_AC3
Продолжительность : 2 ч. 10 м.
Вид битрейта : Постоянный
Битрейт : 192 Кбит/сек
Каналы : 2 канала
Расположение каналов : Front: L R
Частота : 48,0 КГц
Битовая глубина : 16 бит
Метод сжатия : С потерями
Размер потока : 179 Мбайт (8%)
Заголовок : Original
Язык : English
Default : Нет
Forced : Нет
pb.wtf



Скачать Прямой репортаж о смерти через торрент http://i67.fastpic.ru/big/2015/0401/c1/ea37f1ca031b632561d196f7f33443c1.jpg Скачать фильм Прямой репортаж о смерти через торрент бесплантно в хорошем качестве Описание: Действие фильма происходит в окрестностях Глазго в недалёком будущем. Некий телевизионный босс решает показать зрителям ... 10 10 3
Торрент: Зарегистрирован [2015-04-01 10:39] · скачан: 16 раз
Статус: √ проверено
Размер: 2.27 GB
Как cкачать? Как скачать Прямой репортаж о смерти через торрент | qTorrent

% Раздел Тема Автор DL S | L
Фильмы [HD 720p, 1080p] (Хороший звук DUB, MVO) [ 3.93 GB ] Прямой репортаж о смерти / La Mort en direct [1980 BDRip 720p] MVO msltel Скачать
1 | 0


>> Регистрируемся здесь <<






Отзывы и комментарии о схеме читаем и пишем здесь: ---> Отзывы и комментарии о схеме

Новые благодарочки в телеграм довольных пользователей:
скриншот   скриншот   скриншот   скриншот   скриншот
    Дорогой пользователь! Огромная просьба, поблагодарите релизера, оцените раздачу и оставьте свои комментарий, если Вы скачали Прямой репортаж о смерти через торрент бесплатно! Внесите свою лепту в развитие PiratBit!
    Комментировать посты могут только пользователи прошедшие не сложную регистрацию
    Показать сообщения:    

    Прямой репортаж о смерти через торрент
    Скачать бесплатно Прямой репортаж о смерти
    Прямой репортаж о смерти скачать торрент
    Прямой репортаж о смерти смотреть онлайн
    Cкачать фильм Прямой репортаж о смерти бесплатно
    Прямой репортаж о смерти скачать торрент в хорошем качестве
    Прямой репортаж о смерти смотреть онлайн бесплатно в хорошем качестве


    Вы не можете начинать темы
    Вы не можете отвечать на сообщения
    Вы не можете редактировать свои сообщения
    Вы не можете удалять свои сообщения
    Вы не можете голосовать в опросах
    Вы не можете прикреплять файлы к сообщениям
    Вы можете скачивать файлы