Ссылка на приватное зеркало нашего сайта всего за 1$. Внимание количество ограничено!!!

2 сезон

iTunes

1 сезон

1

iTunes

iTunes

iTunes

1 сезон

RePack

30

ИГРА 18+

pack

ВАЖНО

!!Акция!!

Alien_RageХит недели

RePack

MK11
pack

Забери бонус

RePack

jed

!!Акция!!

Alien_Rage

RePack

fifa19

RePack

Assassins Creed: Odyssey

RePack

NEED FOR SPEED™ PAYBACK

4 сезон

9 сезон

Бесстыжие 9 сезон

Все сериалы

все сериалы на PB.wtf

RePack

FAR CRY 5
  

Прямой репортаж о смерти / La Mort en direct (Бертран Тавернье) [1980, фантастика, драма, BDRip 720p] MVO pb.wtf

Прямой репортаж о смерти через торрент pb.wtf

Размер: 3.93 GB | Добавлен: 5 лет 6 мес. назад | Торрент скачан:15 раз
Скачать  

01-04-2015 11:20 Прямой репортаж о смерти Скачать торрент  

Прямой репортаж о смерти / La Mort en direct

Год выпуска: 1980
Страна: Франция, Германия (ФРГ)
Жанр: фантастика, драма
Продолжительность: 02:10:26
Перевод: профессиональный многоголосый
Субтитры: нет

Режиссёр: Бертран Тавернье

В ролях: Роми Шнайдер, Харви Кейтель, Гарри Дин Стэнтон, Тереза Лиотар, Макс фон Сюдов, Кэролайн Лэнгриш, Вадим Гловна, Ева Мария Майнеке, Бернхард Викки

Описание: Действие фильма происходит в окрестностях Глазго в недалёком будущем. Некий телевизионный босс решает показать зрителям сенсационный репортаж о последних часах жизни человека. Выбор падает на писательницу Катрин. Репортёру Родди, взявшемуся за это грязное дело, в мозг монтируют минипередатчик, а глаза служат объективами. Но Родди увлекается жертвой и, чтобы спасти её, ослепляет себя... Фильм снят по роману "The Continuous Katherine Mortenhoe" Дэвида Комптона.



Качество: BDRip 720p Сравнение с исходником
Формат: MKV
Видео кодек: H.264
Аудио кодек: AC3
Видео: 3847 Кбит/с, 1280x544, 23.976 кадра/с, 0.230 bpp
Аудио 1: русский, AC3, 192 kbps, 4 ch, 48 kHz [профессиональный многоголосый]
Аудио 2: английский, AC3, 192 kbps, 2 ch, 48 kHz [оригинал]
Сезар, 1981 год
Номинации (5):
Лучший адаптированный или оригинальный сценарий
Лучшая работа оператора
Лучший звук
Лучший монтаж
Лучший саундтрек

Берлинский кинофестиваль, 1980 год
Номинации (1):
Золотой Медведь
frame I:1080 Avg QP:14.81 size: 89057
frame P:33472 Avg QP:16.10 size: 42333
frame B:153106 Avg QP:18.16 size: 15236

Общее
Уникальный идентификатор : 179615289682861540898892167038462171918 (0x8720A5802C0EEBDCB86C6CE563219B0E)
Полное имя : D:VideoPrjamoj reportag o smerti.1980.BDRip.720p.mkv
Формат : Matroska
Версия формата : Version 4 / Version 2
Размер файла : 3,93 Гбайт
Продолжительность : 2 ч. 10 м.
Общий поток : 4317 Кбит/сек
Дата кодирования : UTC 2015-04-01 06:05:23
Программа кодирования : mkvmerge v7.8.0 ('River Man') 64bit built on Mar 27 2015 16:31:37
Библиотека кодирования : libebml v1.3.1 + libmatroska v1.4.2
DURATION : 02:10:25.824000000
NUMBER_OF_FRAMES : 244557
NUMBER_OF_BYTES : 187819776
_STATISTICS_WRITING_APP : mkvmerge v7.8.0 ('River Man') 64bit built on Mar 27 2015 16:31:37
_STATISTICS_WRITING_DATE_UTC : 2015-04-01 06:05:23
_STATISTICS_TAGS : BPS DURATION NUMBER_OF_FRAMES NUMBER_OF_BYTES

Видео
Идентификатор : 1
Формат : AVC
Формат/Информация : Advanced Video Codec
Профиль формата : High@L4.1
Параметр CABAC формата : Да
Параметр ReFrames формата : 9 кадров
Идентификатор кодека : V_MPEG4/ISO/AVC
Продолжительность : 2 ч. 10 м.
Битрейт : 3847 Кбит/сек
Ширина : 1280 пикселей
Высота : 544 пикселя
Соотношение сторон : 2,35:1
Режим частоты кадров : Постоянный
Частота кадров : 23,976 кадра/сек
Цветовое пространство : YUV
Субдискретизация насыщенности : 4:2:0
Битовая глубина : 8 бит
Тип развёртки : Прогрессивная
Бит/(Пиксели*Кадры) : 0.230
Размер потока : 3,51 Гбайт (89%)
Заголовок : BDRip -- STarankov
Библиотека кодирования : x264 core 146 r2538 121396c
Настройки программы : cabac=1 / ref=9 / deblock=1:-1:-1 / analyse=0x3:0x113 / me=umh / subme=10 / psy=1 / psy_rd=1.00:0.15 / mixed_ref=1 / me_range=32 / chroma_me=1 / trellis=2 / 8x8dct=1 / cqm=0 / deadzone=21,11 / fast_pskip=1 / chroma_qp_offset=-3 / threads=6 / lookahead_threads=1 / sliced_threads=0 / nr=0 / decimate=1 / interlaced=0 / bluray_compat=0 / constrained_intra=0 / bframes=11 / b_pyramid=2 / b_adapt=2 / b_bias=0 / direct=3 / weightb=1 / open_gop=0 / weightp=2 / keyint=230 / keyint_min=23 / scenecut=40 / intra_refresh=0 / rc_lookahead=40 / rc=crf / mbtree=0 / crf=18.0 / qcomp=0.60 / qpmin=0 / qpmax=69 / qpstep=4 / vbv_maxrate=40000 / vbv_bufsize=50000 / crf_max=0.0 / nal_hrd=none / filler=0 / ip_ratio=1.40 / pb_ratio=1.30 / aq=1:1.00
Язык : English
Default : Да
Forced : Нет
DURATION : 02:10:26.903000000
NUMBER_OF_FRAMES : 187658
NUMBER_OF_BYTES : 3845887401
_STATISTICS_WRITING_APP : mkvmerge v7.8.0 ('River Man') 64bit built on Mar 27 2015 16:31:37
_STATISTICS_WRITING_DATE_UTC : 2015-04-01 06:05:23
_STATISTICS_TAGS : BPS DURATION NUMBER_OF_FRAMES NUMBER_OF_BYTES

Аудио #1
Идентификатор : 2
Формат : AC-3
Формат/Информация : Audio Coding 3
Расширение режима : CM (complete main)
Параметр Endianness формата : Big
Идентификатор кодека : A_AC3
Продолжительность : 2 ч. 10 м.
Вид битрейта : Постоянный
Битрейт : 192 Кбит/сек
Каналы : 4 канала
Расположение каналов : Front: L C R, LFE
Частота : 48,0 КГц
Битовая глубина : 16 бит
Метод сжатия : С потерями
Размер потока : 179 Мбайт (4%)
Заголовок : MVO
Язык : Russian
Default : Да
Forced : Нет

Аудио #2
Идентификатор : 3
Формат : AC-3
Формат/Информация : Audio Coding 3
Расширение режима : CM (complete main)
Параметр Endianness формата : Big
Идентификатор кодека : A_AC3
Продолжительность : 2 ч. 10 м.
Вид битрейта : Постоянный
Битрейт : 192 Кбит/сек
Каналы : 2 канала
Расположение каналов : Front: L R
Частота : 48,0 КГц
Битовая глубина : 16 бит
Метод сжатия : С потерями
Размер потока : 179 Мбайт (4%)
Заголовок : Original
Язык : English
Default : Нет
Forced : Нет
pb.wtf



Скачать Прямой репортаж о смерти через торрент http://i67.fastpic.ru/big/2015/0401/c1/ea37f1ca031b632561d196f7f33443c1.jpg Скачать фильм Прямой репортаж о смерти через торрент бесплантно в хорошем качестве Описание: Действие фильма происходит в окрестностях Глазго в недалёком будущем. Некий телевизионный босс решает показать зрителям ... 7.2 10 5
Info! Золотая раздача, скачанное не засчитывается.
Торрент: Зарегистрирован [2015-04-01 11:20] · скачан: 15 раз
Статус: √ проверено
Размер: 3.93 GB
Как cкачать? Как скачать Прямой репортаж о смерти через торрент | qTorrent

% Раздел Тема Автор DL S | L
Фильмы до 2000 г. [ 2.27 GB ] Прямой репортаж о смерти / La Mort en direct [1980 BDRip-AVC] MVO msltel Скачать
1 | 0

28-11-2019 20:33  

Отключить всю рекламу на сайте

    Дорогой пользователь! Огромная просьба, поблагодарите релизера, оцените раздачу и оставьте свои комментарий, если Вы скачали Прямой репортаж о смерти через торрент бесплатно! Внесите свою лепту в развитие PiratBit!
    Комментировать посты могут только пользователи прошедшие не сложную регистрацию
    Показать сообщения:    

    Прямой репортаж о смерти через торрент
    Скачать бесплатно Прямой репортаж о смерти
    Прямой репортаж о смерти скачать торрент
    Прямой репортаж о смерти смотреть онлайн
    Cкачать фильм Прямой репортаж о смерти бесплатно
    Прямой репортаж о смерти скачать торрент в хорошем качестве
    Прямой репортаж о смерти смотреть онлайн бесплатно в хорошем качестве


    Вы не можете начинать темы
    Вы не можете отвечать на сообщения
    Вы не можете редактировать свои сообщения
    Вы не можете удалять свои сообщения
    Вы не можете голосовать в опросах
    Вы не можете прикреплять файлы к сообщениям
    Вы можете скачивать файлы