Ссылка на приватное зеркало нашего сайта всего за 1$. Внимание количество ограничено!!!

2 сезон

iTunes

1 сезон

1

iTunes

iTunes

iTunes

1 сезон

RePack

30

ИГРА 18+

pack

ВАЖНО

!!Акция!!

Alien_RageХит недели

RePack

MK11
pack

Забери бонус

RePack

jed

!!Акция!!

Alien_Rage

RePack

fifa19

RePack

Assassins Creed: Odyssey

RePack

NEED FOR SPEED™ PAYBACK

4 сезон

9 сезон

Бесстыжие 9 сезон

Все сериалы

все сериалы на PB.wtf

RePack

FAR CRY 5
  

Трюкач (1-12 серии из 12) (Сергей Щербин) [2015 г., мелодрама, комедия, SATRip] pb.wtf

Трюкач через торрент pb.wtf

Размер: 7.01 GB | Добавлен: 5 лет 6 мес. назад | Торрент скачан:430 раз
Скачать  

01-04-2015 23:26 Трюкач Скачать торрент  

Трюкач Год выпуска: 2015
Страна: Россия
Жанр: мелодрама, комедия
Продолжительность: 0:45:00 (Серия)

Режиссер: Сергей Щербин

В ролях: Сергей Стрельников, Леонид Бичевин, Марина Коняшкина, Юлия Галкина, Виктор Добронравов, Антон Хабаров, Дмитрий Поднозов, Нино Нинидзе, София Горелашвили, Малхаз Абуладзе, Георгий (Гия) Бурджанадзе, Антон Феоктистов

Описание: «Трюкач» - это сага о самых ярких, необыкновенных, рисковых и мужественных людях, работающих в кино: о каскадерах. История начинается в 1958 году. Санька – Сан Саныч, бесшабашный сын Героя Советского Союза генерала-лейтенанта Богатырева не знает, кем хочет стать. Его привлекают скорость и риск. Он лучший мотогонщик в своем районе. Но не желает подчиняться общепринятым правилам и нормам и категорически нигде не хочет учиться после школы. В сердцах отец отправляет Сан Саныча служить в танковых войсках. Сан Саныч быстро становится лучшим водителем танка и случайно попадает на съемки фильма о войне. Здесь его замечает лучший постановщик трюков Мосфильма Олег Фомин. Оценив водительское мастерство Сан Саныча, Фомин приглашает его после службы работать к себе, в бригаду трюкачей. Так Сан Саныч становится трюкачом и, впоследствии, настоящей легендой Мосфильма. Работа трюкача дает ему счастье творчества, первую любовь, настоящих друзей.

Качество: SATRip
Формат: AVI
Видео кодек: XviD
Аудио кодек: AC3
Видео: MPEG4, XviD, 720x384 (1.875), 25.000 fps, 1 481 Kbps (0.214 bit/pixel)
Аудио: AC-3, 48.0 KHz, 2 ch, 192 Kbps, CBR
Общее
Полное имя : D:\Games\Triukach.2015.SATRip.Files-x\01.Triukach.2015.SATRip.Files-x.avi
Формат : AVI
Формат/Информация : Audio Video Interleave
Размер файла : 581 Мбайт
Продолжительность : 48 м.
Общий поток : 1683 Кбит/сек
Программа кодирования : VirtualDubMod 1.5.10.2 (build 2542/release)
Библиотека кодирования : VirtualDubMod build 2542/release

Видео
Идентификатор : 0
Формат : MPEG-4 Visual
Профиль формата : Advanced Simple@L5
Параметр BVOP формата : 1
Параметр QPel формата : Нет
Параметр GMC формата : Без точки перехода
Параметр матрицы формата : Выборочная
Идентификатор кодека : XVID
Идентификатор кодека/Подсказка : XviD
Продолжительность : 48 м.
Битрейт : 1481 Кбит/сек
Ширина : 720 пикселей
Высота : 384 пикселя
Соотношение сторон : 1,85:1
Частота кадров : 25,000 кадров/сек
Цветовое пространство : YUV
Субдискретизация насыщенности : 4:2:0
Битовая глубина : 8 бит
Тип развёртки : Прогрессивная
Метод сжатия : С потерями
Бит/(Пиксели*Кадры) : 0.214
Размер потока : 511 Мбайт (88%)
Библиотека кодирования : XviD 73

Аудио
Идентификатор : 1
Формат : AC-3
Формат/Информация : Audio Coding 3
Расширение режима : CM (complete main)
Параметр Endianness формата : Big
Идентификатор кодека : 2000
Продолжительность : 48 м.
Вид битрейта : Постоянный
Битрейт : 192 Кбит/сек
Каналы : 2 канала
Расположение каналов : Front: L R
Частота : 48,0 КГц
Битовая глубина : 16 бит
Метод сжатия : С потерями
Размер потока : 66,3 Мбайт (11%)
Выравнивание : Разделение по промежуткам
Продолжительность промежутка : 40 мс. (1,00 видеокадр)
Время предзагрузки промежутка : 500 мс.[/code]
скриншот   скриншот   скриншот   скриншот   скриншот   скриншот   скриншот   скриншот   скриншот  
pb.wtf



Скачать Трюкач через торрент http://pic1.kartinco.top/images/10/j6mo1.jpg Скачать фильм Трюкач через торрент бесплантно в хорошем качестве Описание: «Трюкач» - это сага о самых ярких, необыкновенных, рисковых и мужественных людях, работающих в кино: о каскадерах. История ... 9.3 10 21
Info! Золотая раздача, скачанное не засчитывается.
Торрент: Зарегистрирован [2015-04-09 22:27] · скачан: 430 раз
Статус: √ проверено
Размер: 7.01 GB
Как cкачать? Как скачать Трюкач через торрент | qTorrent

% Раздел Тема Автор DL S | L
Фильмы до 2000 г. [ 2.18 GB ] Трюкач / The Stunt Man [1980 BDRip] MVO DUB koenig Скачать
1 | 0
Классика зарубежного кино [ 2.18 GB ] Трюкач / The Stunt Man [1980 HDRip] DUB lug30 Скачать
1 | 0
Фильмы 2009 [ 1.36 GB ] Трюкач / Stuntmen [2009 DVDRip] sniper224 Скачать
1 | 0

28-11-2019 20:33  

Отключить всю рекламу на сайте

07-12-2015 09:52 Трюкач Скачать торрент  

Отменный сериал смотрел с большим удовольствием, эта наша история признания Российских каскадёров. Раздатчику огромное спасибо.pb.wtf



    Дорогой пользователь! Огромная просьба, поблагодарите релизера, оцените раздачу и оставьте свои комментарий, если Вы скачали Трюкач через торрент бесплатно! Внесите свою лепту в развитие PiratBit!
    Комментировать посты могут только пользователи прошедшие не сложную регистрацию
    Показать сообщения:    

    Трюкач через торрент
    Скачать бесплатно Трюкач
    Трюкач скачать торрент
    Трюкач смотреть онлайн
    Cкачать фильм Трюкач бесплатно
    Трюкач скачать торрент в хорошем качестве
    Трюкач смотреть онлайн бесплатно в хорошем качестве


    Вы не можете начинать темы
    Вы не можете отвечать на сообщения
    Вы не можете редактировать свои сообщения
    Вы не можете удалять свои сообщения
    Вы не можете голосовать в опросах
    Вы не можете прикреплять файлы к сообщениям
    Вы можете скачивать файлы