Ссылка на приватное зеркало нашего сайта всего за 1$. Внимание количество ограничено!!!

2 сезон

iTunes

1 сезон

1

iTunes

iTunes

iTunes

1 сезон

RePack

30

ИГРА 18+

pack

ВАЖНО

!!Акция!!

Alien_RageХит недели

RePack

MK11
pack

Забери бонус

RePack

jed

!!Акция!!

Alien_Rage

RePack

fifa19

RePack

Assassins Creed: Odyssey

RePack

NEED FOR SPEED™ PAYBACK

4 сезон

9 сезон

Бесстыжие 9 сезон

Все сериалы

все сериалы на PB.wtf

RePack

FAR CRY 5
  

Игрок / The Gambler (Руперт Уайатт) [2014, триллер, драма, криминал, BDRip 1080p, Дублированный, Лицензия] pb.wtf

Игрок через торрент pb.wtf

Размер: 7.76 GB | Добавлен: 5 лет 6 мес. назад | Торрент скачан:1868 раз
Скачать  

02-04-2015 08:44 Игрок Скачать торрент  

Игрок / The Gambler
«Ставок больше нет»


Год выпуска: 2014
Страна: США
Жанр: триллер, драма, криминал
Продолжительность: 01:50:58
Перевод: Дублированный - [Лицензия]
Субтитры: русские, украинские, английские
Режиссер: Руперт Уайатт
В ролях: Марк Уолберг , Джон Гудман , Бри Ларсон , Майкл Кеннет Уильямс , Джессика Лэнг , Гриффин Кливлэнд , Омар Лейва , Энтони Келли , Стив Парк , Эмори Коэн , Джордж Кеннеди , Чил Конг
Описание::
Джим Беннетт - рисковый парень. Днем он - гениальный писатель и отличный преподаватель, ночью - заядлый игрок. Он глубоко увяз в мире, где закон - пустой звук, и однажды ставит на кон все, включая собственную жизнь. Те, кому он должен, опасны, а помочь ему может только тот, кто еще опаснее.
Достоин ли второго шанса человек, проигравший самого себя? А, если да, то - во сколько это ему обойдется?

R - Лицам до 17 лет обязательно присутствие взрослого
Качество: BDRip 1080p (исходник Blu-ray)
Контейнер (Расширение): MKV
Видео кодек: AVC
Аудио кодек: AC3
Видео: 1920x800 (2.40:1), 8730 Кбит/сек, 23,976 кадр/сек, 0,237 Бит/[Пиксели*Кадры]
Аудио №1: русский / AC3 / 5.1 / 48 kHz / 640 kbps / 16 bit |Дублированный|
Аудио №2: английский / AC3 / 5.1 / 48 kHz / 640 kbps / 16 bit
Навигация по главам(Чаптеры): естьАвтор рипа: Сообщество:
  • Ради съемок в фильме Марк Уолберг похудел на 25 килограммов.
  • Код:

    Format                                   : Matroska
    Format version                           : Version 2
    File size                                : 7.76 GiB
    Duration                                 : 1h 50mn
    Overall bit rate                         : 10.0 Mbps
    Movie name                               : The Gambler.(2014).BDRip.1080p.[denis100]
    Encoded date                             : UTC 2015-04-02 07:14:40
    Writing application                      : mkvmerge v5.8.0 ('No Sleep / Pillow') built on Sep  2 2012 15:37:04
    Writing library                          : libebml v1.2.3 + libmatroska v1.3.0

    Video
    ID                                       : 1
    Format                                   : AVC
    Format/Info                              : Advanced Video Codec
    Format profile                           : High@L4.1
    Format settings, CABAC                   : Yes
    Format settings, ReFrames                : 5 frames
    Codec ID                                 : V_MPEG4/ISO/AVC
    Duration                                 : 1h 50mn
    Bit rate                                 : 8 730 Kbps
    Width                                    : 1 920 pixels
    Height                                   : 800 pixels
    Display aspect ratio                     : 2.40:1
    Frame rate                               : 23.976 fps
    Color space                              : YUV
    Chroma subsampling                       : 4:2:0
    Bit depth                                : 8 bits
    Scan type                                : Progressive
    Bits/(Pixel*Frame)                       : 0.237
    Stream size                              : 6.61 GiB (85%)
    Title                                    : The Gambler.(2014).BDRip.1080p.[denis100]
    Writing library                          : x264 core 146 r2538 121396c
    Encoding settings                        : cabac=1 / ref=5 / deblock=1:-3:-3 / analyse=0x3:0x133 / me=umh / subme=11 / psy=1 / psy_rd=1.00:0.00 / mixed_ref=1 / me_range=32 / chroma_me=1 / trellis=2 / 8x8dct=1 / cqm=0 / deadzone=21,11 / fast_pskip=0 / chroma_qp_offset=-2 / threads=6 / lookahead_threads=1 / sliced_threads=0 / nr=0 / decimate=1 / interlaced=0 / bluray_compat=0 / constrained_intra=0 / bframes=7 / b_pyramid=2 / b_adapt=2 / b_bias=0 / direct=3 / weightb=1 / open_gop=0 / weightp=2 / keyint=240 / keyint_min=23 / scenecut=40 / intra_refresh=0 / rc=2pass / mbtree=0 / bitrate=8730 / ratetol=1.0 / qcomp=0.60 / qpmin=0 / qpmax=69 / qpstep=4 / cplxblur=20.0 / qblur=0.5 / ip_ratio=1.40 / pb_ratio=1.30 / aq=1:1.00
    Language                                 : English
    Default                                  : Yes
    Forced                                   : No

    Audio #1
    ID                                       : 2
    Format                                   : AC-3
    Format/Info                              : Audio Coding 3
    Mode extension                           : CM (complete main)
    Codec ID                                 : A_AC3
    Duration                                 : 1h 50mn
    Bit rate mode                            : Constant
    Bit rate                                 : 640 Kbps
    Channel(s)                               : 6 channels
    Channel positions                        : Front: L C R, Side: L R, LFE
    Sampling rate                            : 48.0 KHz
    Bit depth                                : 16 bits
    Compression mode                         : Lossy
    Stream size                              : 508 MiB (6%)
    Title                                    : Дублированный, Blu-ray CEE
    Language                                 : Russian
    Default                                  : Yes
    Forced                                   : No

    Audio #2
    ID                                       : 3
    Format                                   : AC-3
    Format/Info                              : Audio Coding 3
    Mode extension                           : CM (complete main)
    Codec ID                                 : A_AC3
    Duration                                 : 1h 50mn
    Bit rate mode                            : Constant
    Bit rate                                 : 640 Kbps
    Channel(s)                               : 6 channels
    Channel positions                        : Front: L C R, Side: L R, LFE
    Sampling rate                            : 48.0 KHz
    Bit depth                                : 16 bits
    Compression mode                         : Lossy
    Stream size                              : 508 MiB (6%)
    Language                                 : English
    Default                                  : No
    Forced                                   : No

    Text #1
    ID                                       : 4
    Format                                   : UTF-8
    Codec ID                                 : S_TEXT/UTF8
    Codec ID/Info                            : UTF-8 Plain Text
    Language                                 : Russian
    Default                                  : No
    Forced                                   : No

    Text #2
    ID                                       : 5
    Format                                   : UTF-8
    Codec ID                                 : S_TEXT/UTF8
    Codec ID/Info                            : UTF-8 Plain Text
    Language                                 : Ukrainian
    Default                                  : No
    Forced                                   : No

    Text #3
    ID                                       : 6
    Format                                   : UTF-8
    Codec ID                                 : S_TEXT/UTF8
    Codec ID/Info                            : UTF-8 Plain Text
    Language                                 : English
    Default                                  : No
    Forced                                   : No

    Menu
    00:00:00.000                             : en:Chapter 1
    00:08:21.375                             : en:Chapter 2
    00:16:46.422                             : en:Chapter 3
    00:25:22.020                             : en:Chapter 4
    00:29:16.254                             : en:Chapter 5
    00:34:09.422                             : en:Chapter 6
    00:45:08.455                             : en:Chapter 7
    00:51:00.515                             : en:Chapter 8
    00:59:08.336                             : en:Chapter 9
    01:06:22.728                             : en:Chapter 10
    01:12:39.229                             : en:Chapter 11
    01:21:58.663                             : en:Chapter 12
    01:24:17.093                             : en:Chapter 13
    01:31:11.757                             : en:Chapter 14
    01:35:35.563                             : en:Chapter 15
    01:46:04.441                             : en:Chapter 16

    x264 [info]: frame I:1386 Avg QP:11.93 size:234534
    x264 [info]: frame P:35213 Avg QP:14.80 size: 85882
    x264 [info]: frame B:123049 Avg QP:16.45 size: 31795
    pb.wtf



    Скачать Игрок через торрент http://i57.fastpic.ru/big/2015/0402/55/dbec54ba48dad1ff4892cf337705a255.png Скачать фильм Игрок через торрент бесплантно в хорошем качестве Описание::Джим Беннетт - рисковый парень. Днем он - гениальный писатель и отличный преподаватель, ночью - заядлый игрок. Он глубоко увяз в ... 9.2 10 29
    Info! Золотая раздача, скачанное не засчитывается.
    Торрент: Зарегистрирован [2015-04-02 08:44] · скачан: 1 868 раз
    Статус: √ проверено
    Размер: 7.76 GB
    Как cкачать? Как скачать Игрок через торрент | qTorrent

    % Раздел Тема Автор DL S | L
    Фильмы (BDRip, HDrip-AVC) (48-60 fps) [ 3.52 GB ] Игрок / The Gambler [2014 BDRip-AVC 60fps ] Tiberiumsun69 Скачать
    1 | 0
    Фильмы 2014 [DVDrip, WEB-DLRip, HDrip] [ 1.46 GB ] Игрок / The Gambler [2014 HDRip-AVC] DUB Ворон Скачать
    1 | 0
    Фильмы (DVD фильмы) [ 6.65 GB ] Игрок / The Gambler [2014 DVD9] R5 voovaz Скачать
    1 | 0
    Фильмы 2014 [DVDrip, WEB-DLRip, HDrip] [ 746 MB ] Игрок / The Gambler [2014 BDRip-AVC] Dub sokol_ok Скачать
    2 | 0
    Фильмы [HD 720p, 1080p] (Хороший звук DUB, MVO) [ 15.01 GB ] Игрок / The Gambler [2014 BDRip 1080p] Dub + AVO + Original + Sub Seedtank Скачать
    1 | 0
    Фильмы 2014 [DVDrip, WEB-DLRip, HDrip] [ 2.05 GB ] Игрок / The Gambler [2014 BDRip-AVC ] DUB _denis_100 Скачать
    2 | 0
    Фильмы 2014 [DVDrip, WEB-DLRip, HDrip] [ 1.37 GB ] Игрок / The Gambler [2014 HDRip] DUB Ворон Скачать
    1 | 0

    28-11-2019 20:33  

    Отключить всю рекламу на сайте

    05-04-2015 15:13 Игрок Скачать торрент  

    Нормальный фильмец ! Очень даже. Глянуть можно.pb.wtf



    06-04-2015 10:59 Игрок Скачать торрент  

    Фильм хорош Марк Волберг красавец впрочем как и обычно играет от души!pb.wtf



    11-04-2015 21:57 Игрок Скачать торрент  

    фильм на любителя-мя огорчил,сюжет скучный муд** актер не рыба не масо -первый раз не угадал с киношкой,ваши коменты запуталиpb.wtf



    30-04-2015 20:46 Игрок Скачать торрент  

    кроган85 писал(а):

    Фильм хорош Марк Волберг красавец впрочем как и обычно играет от души!

    Как раз наоборот, театрал из него никудышный. Но вот в чём его не упрекнуть, к каждой роли он готовится усердно. Вот например к этому фильму ему пришлось высушить себя почти на 18кгpb.wtf



      Дорогой пользователь! Огромная просьба, поблагодарите релизера, оцените раздачу и оставьте свои комментарий, если Вы скачали Игрок через торрент бесплатно! Внесите свою лепту в развитие PiratBit!
      Комментировать посты могут только пользователи прошедшие не сложную регистрацию
      Показать сообщения:    

      Игрок через торрент
      Скачать бесплатно Игрок
      Игрок скачать торрент
      Игрок смотреть онлайн
      Cкачать фильм Игрок бесплатно
      Игрок скачать торрент в хорошем качестве
      Игрок смотреть онлайн бесплатно в хорошем качестве


      Вы не можете начинать темы
      Вы не можете отвечать на сообщения
      Вы не можете редактировать свои сообщения
      Вы не можете удалять свои сообщения
      Вы не можете голосовать в опросах
      Вы не можете прикреплять файлы к сообщениям
      Вы можете скачивать файлы