Ссылка на приватное зеркало нашего сайта всего за 1$. Внимание количество ограничено!!!

2 сезон

iTunes

1 сезон

1

2 сезон

2 сезон

iTunes

1 сезон

RePack

30

Ultimate

ВАЖНО

ИГРА 18+

pack

RePack

MK11
pack

Забери бонус

RePack

jed

!!Акция!!

Alien_Rage

RePack

fifa19

RePack

Assassins Creed: Odyssey

RePack

NEED FOR SPEED™ PAYBACK

4 сезон

9 сезон

Бесстыжие 9 сезон

Все сериалы

все сериалы на PB.wtf

RePack

FAR CRY 5
  

Батл Крик / Battle Creek/ сезон 1/ серии 1-5 из 13 (Эндрю Бернштейн, Дэниэл Эттиэс, Колин Бакси) [2015 г. США, Драма, криминал, WEB-DLRip 1080p] MVO [LostFilm] pb.wtf

Скачать  

02-04-2015 10:31 Батл Крик Скачать торрент  

Батл Крик / Battle Creek
Год выпуска: 2015
Страна: США
Жанр: Драма, криминал
Продолжительность: ~ 00:43:00 (Серия)
Перевод: Профессиональный многоголосый [LostFilm]
Режиссер: Эндрю Бернштейн, Дэниэл Эттиэс, Колин Бакси
Продюссер: Марк Дуглас, Винс Гиллиган, Erin Gunn
Сценарий: Винс Гиллиган, Дэвид Шор, Рассел Френд, Гаррет Лернер



В ролях: Джош Дюамель, Дин Уинтерс, Джанет МакТир, Кэл Пенн, Обри Доллар, Grapevine, Дэймон Херриман, Лиза Лапира, Джесси Фудрей, Мередит Итон

Описание: Спокойную размеренную жизнь городка Батл Крик нарушает появление специального агента Милтона Чемберлена, который открывает в местном допотопном полицейском участке филиал ФБР, оснащенный по последнему слову техники. Себе в напарники Чемберлен выбирает детектива Расса Эгню, привыкшего раскрывать преступления с помощью старомодных методов, хитрости и обмана. Полицейский представляет собой полную противоположность агента ФБР, но их совместная работа показывает, что сочетание знаний и обаяния Милтона с опытом и прямолинейностью Расса делает их идеальными партнерами для борьбы с криминальным миром Батл Крика.

Качество: WEB-DLRip 1080p
Формат: MKV
Видео кодек: AVC
Аудио кодек: AC3
Видео: 1920x1080 (16:9), 23.976 fps, 5 242 Kbps (0.105 bit/pixel)
Аудио#1: 48.0 KHz, 2 ch, 384 Kbps, (Russian)
Аудио#2: 48.0 KHz, 2 ch, 384 Kbps, (English)
Внимание! Раздача ведётся путём добавления новых серий; при каждом добавлении создаётся новый торрент. Чтобы начать докачку новой серии, пользователям необходимо сделать следующее:
(1) остановить скачивание,
(2) удалить старый торрент у себя из клиента (старые серии удалять не надо),
(3) скачать новый торрент и запустить его у себя в клиенте вместо старого, при этом указать клиенту путь в старую папку куда и должно происходить скачивание новых серий.
Ваш клиент при этом должен произвести хеширование (проверку) старой папки (если не производит сам - помогите ему сделать это), и будет докачивать только те серии которых у вас ещё нет. Старые серии при этом не удаляются, а продолжают раздаваться!
Eсли вы уже удалили старые серии, то предотвратить повторную закачку старых серий можно, отжав галочку в соответствующих местах при запуске нового торрента. По возможности, желательно не удалять старые серии как можно дольше чтобы релизёр не столько продолжал раздавать старые серии, а смог сконцентрироваться на новых.
1-Метод Батл крика
2-Липкое дело
3-Лучший друг человека
4-Фамильные ценности

Общее
Уникальный идентификатор : 209080016480289811195807371445185385321 (0x9D4B58B1073B3F5193270107C71D9369)
Полное имя : F:\films\Battle.Creek.S01.1080p.rus.LostFilm\Battle.Creek.S01E01.1080p.rus.LostFilm.TV.mkv
Формат : Matroska
Версия формата : Version 2
Размер файла : 1,77 Гбайт
Продолжительность : 42 м.
Общий поток : 6012 Кбит/сек
Дата кодирования : UTC 2015-03-12 17:55:02
Программа кодирования : mkvmerge v4.2.0 ('No Talking') сборка от Jul 28 2010 18:38:23
Библиотека кодирования : libebml v1.0.0 + libmatroska v1.0.0

Видео
Идентификатор : 1
Формат : AVC
Формат/Информация : Advanced Video Codec
Профиль формата : High@L4.0
Параметр CABAC формата : Да
Параметр ReFrames формата : 2 кадра
Идентификатор кодека : V_MPEG4/ISO/AVC
Продолжительность : 42 м.
Битрейт : 5242 Кбит/сек
Ширина : 1920 пикселей
Высота : 1080 пикселей
Соотношение сторон : 16:9
Режим частоты кадров : Постоянный
Частота кадров : 23,976 кадра/сек
Цветовое пространство : YUV
Субдискретизация насыщенности : 4:2:0
Битовая глубина : 8 бит
Тип развёртки : Прогрессивная
Бит/(Пиксели*Кадры) : 0.105
Размер потока : 1,51 Гбайт (85%)
Библиотека кодирования : x264 core 112 r1834 a51816a
Настройки программы : cabac=1 / ref=1 / deblock=1:0:0 / analyse=0x3:0x133 / me=umh / subme=7 / psy=1 / psy_rd=1.00:0.00 / mixed_ref=0 / me_range=16 / chroma_me=1 / trellis=1 / 8x8dct=1 / cqm=0 / deadzone=21,11 / fast_pskip=1 / chroma_qp_offset=-2 / threads=6 / sliced_threads=0 / nr=0 / decimate=1 / interlaced=0 / constrained_intra=0 / bframes=5 / b_pyramid=0 / b_adapt=1 / b_bias=0 / direct=3 / weightb=1 / open_gop=0 / weightp=2 / keyint=250 / keyint_min=25 / scenecut=40 / intra_refresh=0 / rc_lookahead=40 / rc=2pass / mbtree=1 / bitrate=5242 / ratetol=1.0 / qcomp=0.60 / qpmin=0 / qpmax=51 / qpstep=4 / cplxblur=20.0 / qblur=0.5 / ip_ratio=1.40 / aq=1:1.00
Default : Да
Forced : Нет

Аудио #1
Идентификатор : 2
Формат : AC-3
Формат/Информация : Audio Coding 3
Расширение режима : CM (complete main)
Параметр Endianness формата : Big
Идентификатор кодека : A_AC3
Продолжительность : 42 м.
Вид битрейта : Постоянный
Битрейт : 384 Кбит/сек
Каналы : 2 канала
Расположение каналов : Front: L R
Частота : 48,0 КГц
Битовая глубина : 16 бит
Метод сжатия : С потерями
Размер потока : 116 Мбайт (6%)
Default : Да
Forced : Нет

Аудио #2
Идентификатор : 3
Формат : AC-3
Формат/Информация : Audio Coding 3
Расширение режима : CM (complete main)
Параметр Endianness формата : Big
Идентификатор кодека : A_AC3
Продолжительность : 42 м.
Вид битрейта : Постоянный
Битрейт : 384 Кбит/сек
Каналы : 2 канала
Расположение каналов : Front: L R
Частота : 48,0 КГц
Битовая глубина : 16 бит
Метод сжатия : С потерями
Размер потока : 116 Мбайт (6%)
Default : Нет
Forced : Нет


Добавлена 5 серия(01.04.15)Перекачайте торрент


pb.wtf



Торрент не зареган: Не зарегистрирован ||
Добавлен: 2015-04-02 10:29
Скачано: 0 раз

28-11-2019 20:33  

Отключить всю рекламу на сайте

    Дорогой пользователь! Огромная просьба, поблагодарите релизера, оцените раздачу и оставьте свои комментарий, если Вы скачали Батл Крик через торрент бесплатно! Внесите свою лепту в развитие PiratBit!
    Комментировать посты могут только пользователи прошедшие не сложную регистрацию
    Показать сообщения:    

    Батл Крик через торрент
    Скачать бесплатно Батл Крик
    Батл Крик скачать торрент
    Батл Крик смотреть онлайн
    Cкачать фильм Батл Крик бесплатно
    Батл Крик скачать торрент в хорошем качестве
    Батл Крик смотреть онлайн бесплатно в хорошем качестве


    Вы не можете начинать темы
    Вы не можете отвечать на сообщения
    Вы не можете редактировать свои сообщения
    Вы не можете удалять свои сообщения
    Вы не можете голосовать в опросах
    Вы не можете прикреплять файлы к сообщениям
    Вы можете скачивать файлы