Ссылка на приватное зеркало нашего сайта всего за 1$. Внимание количество ограничено!!!

2 сезон

iTunes

1 сезон

1

iTunes

iTunes

iTunes

1 сезон

RePack

30

ИГРА 18+

pack

ВАЖНО

!!Акция!!

Alien_RageХит недели

RePack

MK11
pack

Забери бонус

RePack

jed

!!Акция!!

Alien_Rage

RePack

fifa19

RePack

Assassins Creed: Odyssey

RePack

NEED FOR SPEED™ PAYBACK

4 сезон

9 сезон

Бесстыжие 9 сезон

Все сериалы

все сериалы на PB.wtf

RePack

FAR CRY 5
  

Между двух огней / Сезон: 1 / Серии 1-16 из 16 (Дмитрий Булин) [2015, Россия, мелодрама, SATRip) pb.wtf

Между двух огней через торрент pb.wtf

Размер: 9.83 GB | Добавлен: 5 лет 6 мес. назад | Торрент скачан:296 раз
Скачать  

03-04-2015 04:17 Между двух огней Скачать торрент  

Между двух огней


  • Год выпуска: 2015
  • Страна: Россия
  • Жанр: мелодрама
  • Продолжительность: 00:43:48
  • Перевод: Не требуется

  • Режиссер: Дмитрий Булин
  • В ролях:

    Александр Никитин, Иван Шмаков (Миша), Мария Ильина (Настя), Елена Великанова, Юлия Зимина, Ольга Волкова, Александр Пашков, Павел Филиппов, Марго Силкина, Сергей Жарков, Дария Тюрина (Лена), Юлия Полынская

  • Описание:
    Рискуя своей жизнью, они каждый день идут в огонь, тушат горящие дома и спасают гибнущих в пожарах людей. Для них это вовсе не подвиг, а привычный труд. Они - бойцы пожарной охраны. Но, пока не заревел сигнал пожарной тревоги, они - такие же люди, как мы с вами. Со своими проблемами и тревогами, любовными переживаниями и семейными конфликтами.
    Главный герой этой истории, командир отделения пожарной части, Алексей, оказывается «меж двух огней»: он вот-вот сделает предложение своей любимой женщине, Дарье, с которой у них уже почти сложилась хорошая крепкая семья, как вдруг к нему бесцеремонно заявляется его бывшая жена Софья. Три года назад она внезапно бросила его, разбив его любящее сердце. Алексей изо всех сил старался ее забыть, и вот, когда ему это уже почти удалось, его прежняя, не угасшая до сих пор любовь сваливается как снег ему на голову. Герой-пожарный чувствует, как земля уходит у него из-под ног: в этой ситуации ни одно решение для него совершенно не приемлемо. Но решать надо...
  • Рейтинг:



  • Качество: SATRip
  • Формат: :AVI
  • Видео кодек: XviD
  • Аудио кодек: MP3
  • Видео: 720x448 (1.607), 1799 kbps, 25 fps, 0,223 bpp
  • Аудио: 2.0 / 48 kHz / 128 kbps /
  • Релиз от: GEKADOL

    Код:

    General
    Complete name                            : D:\Фильмы\Mezhdu.dvuh.ognej.SATRip\Mezhdu.Dvuh.Ogney.16.SATRip.avi
    Format                                   : AVI
    Format/Info                              : Audio Video Interleave
    File size                                : 607 MiB
    Duration                                 : 43mn 48s
    Overall bit rate                         : 1 937 Kbps
    Writing application                      : VirtualDubMod 1.5.10.3 | www.virtualdub-fr.org || (build 2550/release)
    Writing library                          : VirtualDubMod build 2550/release

    Video
    ID                                       : 0
    Format                                   : MPEG-4 Visual
    Format profile                           : Advanced Simple@L5
    Format settings, BVOP                    : 2
    Format settings, QPel                    : No
    Format settings, GMC                     : No warppoints
    Format settings, Matrix                  : Default (H.263)
    Codec ID                                 : XVID
    Codec ID/Hint                            : XviD
    Duration                                 : 43mn 48s
    Bit rate                                 : 1 800 Kbps
    Width                                    : 720 pixels
    Height                                   : 448 pixels
    Display aspect ratio                     : 1.607
    Frame rate                               : 25.000 fps
    Color space                              : YUV
    Chroma subsampling                       : 4:2:0
    Bit depth                                : 8 bits
    Scan type                                : Progressive
    Compression mode                         : Lossy
    Bits/(Pixel*Frame)                       : 0.223
    Stream size                              : 564 MiB (93%)
    Writing library                          : XviD 1.2.1 (UTC 2008-12-04)

    Audio
    ID                                       : 1
    Format                                   : MPEG Audio
    Format version                           : Version 1
    Format profile                           : Layer 3
    Mode                                     : Joint stereo
    Mode extension                           : MS Stereo
    Codec ID                                 : 55
    Codec ID/Hint                            : MP3
    Duration                                 : 43mn 48s
    Bit rate mode                            : Constant
    Bit rate                                 : 128 Kbps
    Channel(s)                               : 2 channels
    Sampling rate                            : 48.0 KHz
    Compression mode                         : Lossy
    Stream size                              : 40.1 MiB (7%)
    Alignment                                : Aligned on interleaves
    Interleave, duration                     : 40 ms (1.00 video frame)
    Interleave, preload duration             : 504 ms
    Writing library                          : LAME3.99r
    Encoding settings                        : -m j -V 4 -q 9 -lowpass 17 -b 128


    Скриншоты:



    pb.wtf



  • Скачать Между двух огней через торрент http://i68.fastpic.ru/big/2015/0403/de/5e9df5e0afc53b53738c9d803bdd4cde.jpg Скачать фильм Между двух огней через торрент бесплантно в хорошем качестве Описание: Рискуя своей жизнью, они каждый день идут в огонь, тушат горящие дома и спасают гибнущих в пожарах людей. Для них это вовсе не ... 10 10 4
    Info! Золотая раздача, скачанное не засчитывается.
    Торрент: Зарегистрирован [2015-04-03 04:17] · скачан: 296 раз
    Статус: √ проверено
    Размер: 9.83 GB
    Как cкачать? Как скачать Между двух огней через торрент | qTorrent

    28-11-2019 20:33  

    Отключить всю рекламу на сайте

      Дорогой пользователь! Огромная просьба, поблагодарите релизера, оцените раздачу и оставьте свои комментарий, если Вы скачали Между двух огней через торрент бесплатно! Внесите свою лепту в развитие PiratBit!
      Комментировать посты могут только пользователи прошедшие не сложную регистрацию
      Показать сообщения:    

      Между двух огней через торрент
      Скачать бесплатно Между двух огней
      Между двух огней скачать торрент
      Между двух огней смотреть онлайн
      Cкачать фильм Между двух огней бесплатно
      Между двух огней скачать торрент в хорошем качестве
      Между двух огней смотреть онлайн бесплатно в хорошем качестве


      Вы не можете начинать темы
      Вы не можете отвечать на сообщения
      Вы не можете редактировать свои сообщения
      Вы не можете удалять свои сообщения
      Вы не можете голосовать в опросах
      Вы не можете прикреплять файлы к сообщениям
      Вы можете скачивать файлы