Мега распродажа FORZA HORIZON 4 ULTIMATE+ВСЕ DLC+ОНЛАЙН всего за 499р. 349 руб. (супер цена). Внимание количество ограничено!!!

iTunes

1+1

iTunes

мы

iTunes

1

iTunes

Чернобыль

1 сезон

Ральф против интернета

Лицензия

ПШазам

Лицензия

Игра престолов

Лицензия

30
pack

ВАЖНО

!!Акция!!

Alien_RageХит недели

RePack

Resident Evil 21

ИГРА 18+

pack

RePack

Metro:Exodus

!!Акция!!

Alien_Rage

RePack

fifa19

RePack

Assassins Creed: Odyssey

RePack

NEED FOR SPEED™ PAYBACK

3 сезон

9 сезон

Бесстыжие 9 сезон

Все сериалы

все сериалы на PB.wtf

RePack

FAR CRY 5
Ребята, катастрофически не хватает 7730р. для оплаты серверов за ИЮЛЬ (всвязи с блокировками трафик упал в 3 раза), 1-2р., выручайте.
  

Неуловимые мстители / Трилогия (Эдмонд Кеосаян) [1966-1971 Приключения, Полная реставрация изображения и звука DVDrip - AVC ] pb.wtf

Неуловимые мстители через торрент pb.wtf

Раздают: 1 [ 0 KB/s ]
Размер: 4.37 GB | Добавлен: 4 года 4 мес. назад | Торрент скачан:126 раз
Скачать  

03-04-2015 06:30 Неуловимые мстители Скачать торрент  


Неуловимые мстители / Трилогия (1966-1971) DVDrip AVC
Крупный План. Полная реставрация изображения и звука.
Неуловимые мстители

Год выпуска: 1966
Страна: СССР
Жанр: приключения
Продолжительность: 01:13:15
Режиссер: Эдмонд Кеосаян
В ролях: Виктор Косых (Данька Щусь), Ефим Копелян (атаман Бурмаш), Владимир Трещалов (Сидор Лютый), Борис Сичкин (Буба Касторский), Савелий Крамаров (Илюха), Владимир Белокуров (отец-философ), Инна Чурикова (белокурая Жози), Василий Васильев (Яшка-цыган), Валентина Курдюкова (Ксанка), Михаил Метёлкин (Валерка Мещеряков), Лев Свердлин (С.М.Будённый), Иван Каширин (машинист горящего поезда)
Описание:
Бывший гимназист Валерка, веселый отчаянный Яшка-цыган, оставшиеся сиротами Данька и его сестренка Ксанка дали клятву внедриться в отряд к атаману Бурнашу и отомстить ему и его банде за смерть отца Даньки. Под видом сына старого друга атамана Данька проникает в отряд Бурнаша. Однако бандиты сумели узнать об этом. Даньку ждет казнь, но друзья на то и друзья, чтобы не бросить своего товарища в беде.
Рейтинг:

Качество: DVDrip - AVC
Формат: MKV
Видео кодек: AVC
Аудио кодек:AC3
Видео: AVC, 1024x476 (2.2:1), 1877 kbps, 25 fps, 0,154 bpp
Аудио: русский / AC3 / 5.1 / 48 kHz / 256 kbps / 16 bit
Общее
Уникальный идентификатор : 228091854444857308658042239043891013777 (0xAB98E4AC55A518C48DE1DF65B74EA891)
Полное имя : D:\Неуловимые_мстители\Неуловимые мстители - 1.mkv
Формат : Matroska
Версия формата : Version 2
Размер файла : 1,09 Гбайт
Продолжительность : 1 ч. 13 м.
Общий поток : 2135 Кбит/сек
Дата кодирования : UTC 2010-05-05 11:19:51
Программа кодирования : mkvmerge v3.2.0 ('Beginnings') built on Feb 12 2010 16:46:17
Библиотека кодирования : libebml v0.7.9 + libmatroska v0.8.1

Видео
Идентификатор : 2
Формат : AVC
Формат/Информация : Advanced Video Codec
Профиль формата : High@L3.1
Параметр CABAC формата : Да
Параметр ReFrames формата : 3 кадра
Идентификатор кодека : V_MPEG4/ISO/AVC
Продолжительность : 1 ч. 13 м.
Битрейт : 1877 Кбит/сек
Ширина : 1024 пикселя
Высота : 476 пикселей
Соотношение сторон : 2,2:1
Режим частоты кадров : Постоянный
Частота кадров : 25,000 кадров/сек
Цветовое пространство : YUV
Субдискретизация насыщенности : 4:2:0
Битовая глубина : 8 бит
Тип развёртки : Прогрессивная
Бит/(Пиксели*Кадры) : 0.154
Размер потока : 962 Мбайт (86%)
Библиотека кодирования : x264 core 80 r1376M 3feaec2
Настройки программы : cabac=1 / ref=3 / deblock=1:0:0 / analyse=0x3:0x113 / me=hex / subme=7 / psy=1 / psy_rd=1.0:0.0 / mixed_ref=1 / me_range=16 / chroma_me=1 / trellis=0 / 8x8dct=1 / cqm=0 / deadzone=21,11 / fast_pskip=1 / chroma_qp_offset=-2 / threads=3 / sliced_threads=0 / nr=0 / decimate=1 / mbaff=0 / constrained_intra=0 / bframes=3 / b_pyramid=0 / b_adapt=1 / b_bias=0 / direct=1 / wpredb=1 / wpredp=2 / keyint=250 / keyint_min=25 / scenecut=40 / rc_lookahead=40 / rc=2pass / mbtree=1 / bitrate=1877 / ratetol=1.0 / qcomp=0.60 / qpmin=10 / qpmax=51 / qpstep=4 / cplxblur=20.0 / qblur=0.5 / ip_ratio=1.40 / aq=1:1.00
Язык : English
Default : Нет
Forced : Нет

Аудио
Идентификатор : 1
Формат : AC-3
Формат/Информация : Audio Coding 3
Расширение режима : CM (complete main)
Параметр Endianness формата : Big
Идентификатор кодека : A_AC3
Продолжительность : 1 ч. 13 м.
Вид битрейта : Постоянный
Битрейт : 256 Кбит/сек
Каналы : 6 каналов
Расположение каналов : Front: L C R, Side: L R, LFE
Частота : 48,0 КГц
Битовая глубина : 16 бит
Метод сжатия : С потерями
Размер потока : 134 Мбайт (12%)
Язык : Russian
Default : Да
Forced : Нет
Новые приключения неуловимых

Год выпуска: 1968
Страна: СССР
Жанр: приключения
Продолжительность: 01:17:40
Режиссер: Эдмонд Кеосаян
В ролях: Михаил Метёлкин (Валерка), Василий Васильев (Яшка-цыган), Виктор Косых (Данька), Валентина Курдюкова (Ксанка), Армен Джигарханян (штабс-капитан Овечкин), Борис Сичкин (Буба Касторский), Аркадий Толбузин (полковник Кудасов), Владимир Ивашов (адьютант Кудасова), Ефим Копелян (атаман бурнаш), Константин Сорокин (карусельщик Мефодий), Иван Переверзев (начальник штаба), Николай Федорцов (подпольщик Андрей)
Описание:
Крым накануне полного освобождения от белогвардейцев. Возвращаясь из дозора, четверка отважных «неуловимых» подбивает аэроплан. В полевой сумке взятого в плен летчика они обнаруживают секретное донесение, где говорится о существовании оборонительных укреплений вокруг приморского города, который красным еще предстоит взять. Юные герои получают задание добыть карту укреплений и едут в город...
Рейтинг:

Качество: DVDrip - AVC
Формат: MKV
Видео кодек: AVC
Аудио кодек:AC3
Видео: AVC, 1024x476 (2.2:1), 1755 kbps, 25 fps, 0,144 bpp
Аудио: русский / AC3 / 5.1 / 48 kHz / 256 kbps / 16 bit

Код:

General
Unique ID                                : 244174180564443729078920659688186817208 (0xB7B23C91C962260AAA7C44757A7DAAB8)
Complete name                            : D:\Неуловимые_мстители\Неуловимые мстители - 2.mkv
Format                                   : Matroska
Format version                           : Version 2
File size                                : 1.09 GiB
Duration                                 : 1h 17mn
Overall bit rate                         : 2 013 Kbps
Encoded date                             : UTC 2010-05-06 10:08:28
Writing application                      : mkvmerge v3.2.0 ('Beginnings') built on Feb 12 2010 16:46:17
Writing library                          : libebml v0.7.9 + libmatroska v0.8.1

Video
ID                                       : 2
Format                                   : AVC
Format/Info                              : Advanced Video Codec
Format profile                           : High@L3.1
Format settings, CABAC                   : Yes
Format settings, ReFrames                : 3 frames
Codec ID                                 : V_MPEG4/ISO/AVC
Duration                                 : 1h 17mn
Bit rate                                 : 1 755 Kbps
Width                                    : 1 024 pixels
Height                                   : 476 pixels
Display aspect ratio                     : 2.2:1
Frame rate                               : 25.000 fps
Color space                              : YUV
Chroma subsampling                       : 4:2:0
Bit depth                                : 8 bits
Scan type                                : Progressive
Bits/(Pixel*Frame)                       : 0.144
Stream size                              : 954 MiB (85%)
Writing library                          : x264 core 80 r1376M 3feaec2
Encoding settings                        : cabac=1 / ref=3 / deblock=1:0:0 / analyse=0x3:0x113 / me=hex / subme=7 / psy=1 / psy_rd=1.0:0.0 / mixed_ref=1 / me_range=16 / chroma_me=1 / trellis=0 / 8x8dct=1 / cqm=0 / deadzone=21,11 / fast_pskip=1 / chroma_qp_offset=-2 / threads=3 / sliced_threads=0 / nr=0 / decimate=1 / mbaff=0 / constrained_intra=0 / bframes=3 / b_pyramid=0 / b_adapt=1 / b_bias=0 / direct=1 / wpredb=1 / wpredp=2 / keyint=250 / keyint_min=25 / scenecut=40 / rc_lookahead=40 / rc=2pass / mbtree=1 / bitrate=1755 / ratetol=1.0 / qcomp=0.60 / qpmin=10 / qpmax=51 / qpstep=4 / cplxblur=20.0 / qblur=0.5 / ip_ratio=1.40 / aq=1:1.00
Language                                 : English
Default                                  : No
Forced                                   : No

Audio
ID                                       : 1
Format                                   : AC-3
Format/Info                              : Audio Coding 3
Mode extension                           : CM (complete main)
Codec ID                                 : A_AC3
Duration                                 : 1h 17mn
Bit rate mode                            : Constant
Bit rate                                 : 256 Kbps
Channel(s)                               : 6 channels
Channel positions                        : Front: L C R, Side: L R, LFE
Sampling rate                            : 48.0 KHz
Bit depth                                : 16 bits
Compression mode                         : Lossy
Stream size                              : 142 MiB (13%)
Language                                 : Russian
Default                                  : Yes
Forced                                   : No

Корона Российской империи, или Снова неуловимые

Год выпуска: 1970
Страна: СССР
Жанр: приключения
Продолжительность: 01:03:40
Режиссер: Эдмонд Кеосаян
В ролях: Михаил Метёлкин (Валерка), Виктор Косых (Данька), Василий Васильев (Яшка-цыган), Валентина Курдюкова (Ксанка), Иван Переверзев (Смирнов, начальник ЧК), Владислав Стржельчик (Нарышкин), Армен Джигарханян (штабс-капитан Овечкин), Аркадий Толбузин (полковник Кудасов), Ролан Быков (лысый «император»), Людмила Гурченко (Аграфена Заволжская, шансонетка), Ефим Копелян (атаман Бурнаш), Андрей Файт (Дюк)
Описание:
Кончилась гражданская война. Четвёрка неуловимых мстителей, ставших чекистами, получает новое задание: охранять музейные ценности, в том числе и Большую императорскую корону. А между тем именно ею мечтают короноваться авантюристы, которые ведут в Париже борьбу за престол несуществующей Российской империи...
Рейтинг:






Качество: DVDrip - AVC
Формат: MKV
Видео кодек: AVC
Аудио кодек:AC3
Видео 1 серия: AVC, 1024x476 (2.2:1), 2199 kbps, 25 fps, 0,180 bpp
Видео 2 серия: AVC, 1024x476 (2.2:1), 2128 kbps, 25 fps, 0,175 bpp
Аудио 1 серия: русский / AC3 / 5.1 / 48 kHz / 256 kbps / 16 bit
Аудио 2 серия: русский / AC3 / 5.1 / 48 kHz / 256 kbps / 16 bit

Код:

General
Unique ID                                : 176432902430953457025601418913781999301 (0x84BBBDB1F590A568A7A7433E1A9166C5)
Complete name                            : D:\Неуловимые_мстители\Неуловимые мстители - 3 часть 1.mkv
Format                                   : Matroska
Format version                           : Version 2
File size                                : 1.09 GiB
Duration                                 : 1h 3mn
Overall bit rate                         : 2 456 Kbps
Encoded date                             : UTC 2010-05-07 09:49:12
Writing application                      : mkvmerge v3.2.0 ('Beginnings') built on Feb 12 2010 16:46:17
Writing library                          : libebml v0.7.9 + libmatroska v0.8.1

Video
ID                                       : 2
Format                                   : AVC
Format/Info                              : Advanced Video Codec
Format profile                           : High@L3.1
Format settings, CABAC                   : Yes
Format settings, ReFrames                : 3 frames
Codec ID                                 : V_MPEG4/ISO/AVC
Duration                                 : 1h 3mn
Bit rate                                 : 2 199 Kbps
Width                                    : 1 024 pixels
Height                                   : 476 pixels
Display aspect ratio                     : 2.2:1
Frame rate                               : 25.000 fps
Color space                              : YUV
Chroma subsampling                       : 4:2:0
Bit depth                                : 8 bits
Scan type                                : Progressive
Bits/(Pixel*Frame)                       : 0.180
Stream size                              : 980 MiB (88%)
Writing library                          : x264 core 80 r1376M 3feaec2
Encoding settings                        : cabac=1 / ref=3 / deblock=1:0:0 / analyse=0x3:0x113 / me=hex / subme=7 / psy=1 / psy_rd=1.0:0.0 / mixed_ref=1 / me_range=16 / chroma_me=1 / trellis=0 / 8x8dct=1 / cqm=0 / deadzone=21,11 / fast_pskip=1 / chroma_qp_offset=-2 / threads=3 / sliced_threads=0 / nr=0 / decimate=1 / mbaff=0 / constrained_intra=0 / bframes=3 / b_pyramid=0 / b_adapt=1 / b_bias=0 / direct=1 / wpredb=1 / wpredp=2 / keyint=250 / keyint_min=25 / scenecut=40 / rc_lookahead=40 / rc=2pass / mbtree=1 / bitrate=2199 / ratetol=1.0 / qcomp=0.60 / qpmin=10 / qpmax=51 / qpstep=4 / cplxblur=20.0 / qblur=0.5 / ip_ratio=1.40 / aq=1:1.00
Language                                 : English
Default                                  : No
Forced                                   : No

Audio
ID                                       : 1
Format                                   : AC-3
Format/Info                              : Audio Coding 3
Mode extension                           : CM (complete main)
Codec ID                                 : A_AC3
Duration                                 : 1h 3mn
Bit rate mode                            : Constant
Bit rate                                 : 256 Kbps
Channel(s)                               : 6 channels
Channel positions                        : Front: L C R, Side: L R, LFE
Sampling rate                            : 48.0 KHz
Bit depth                                : 16 bits
Compression mode                         : Lossy
Stream size                              : 117 MiB (10%)
Language                                 : Russian
Default                                  : Yes
Forced                                   : No

Код:

General
Unique ID                                : 188935035641939124312109652457984715930 (0x8E239073E9535238B968038B694D6C9A)
Complete name                            : D:\Неуловимые_мстители\Неуловимые мстители - 3 часть 2.mkv
Format                                   : Matroska
Format version                           : Version 2
File size                                : 1.09 GiB
Duration                                 : 1h 5mn
Overall bit rate                         : 2 386 Kbps
Encoded date                             : UTC 2010-05-11 07:58:07
Writing application                      : mkvmerge v3.2.0 ('Beginnings') built on Feb 12 2010 16:46:17
Writing library                          : libebml v0.7.9 + libmatroska v0.8.1

Video
ID                                       : 2
Format                                   : AVC
Format/Info                              : Advanced Video Codec
Format profile                           : High@L3.1
Format settings, CABAC                   : Yes
Format settings, ReFrames                : 3 frames
Codec ID                                 : V_MPEG4/ISO/AVC
Duration                                 : 1h 5mn
Bit rate                                 : 2 128 Kbps
Width                                    : 1 024 pixels
Height                                   : 476 pixels
Display aspect ratio                     : 2.2:1
Frame rate                               : 25.000 fps
Color space                              : YUV
Chroma subsampling                       : 4:2:0
Bit depth                                : 8 bits
Scan type                                : Progressive
Bits/(Pixel*Frame)                       : 0.175
Stream size                              : 977 MiB (87%)
Writing library                          : x264 core 80 r1376M 3feaec2
Encoding settings                        : cabac=1 / ref=3 / deblock=1:0:0 / analyse=0x3:0x113 / me=hex / subme=7 / psy=1 / psy_rd=1.0:0.0 / mixed_ref=1 / me_range=16 / chroma_me=1 / trellis=0 / 8x8dct=1 / cqm=0 / deadzone=21,11 / fast_pskip=1 / chroma_qp_offset=-2 / threads=3 / sliced_threads=0 / nr=0 / decimate=1 / mbaff=0 / constrained_intra=0 / bframes=3 / b_pyramid=0 / b_adapt=1 / b_bias=0 / direct=1 / wpredb=1 / wpredp=2 / keyint=250 / keyint_min=25 / scenecut=40 / rc_lookahead=40 / rc=2pass / mbtree=1 / bitrate=2128 / ratetol=1.0 / qcomp=0.60 / qpmin=10 / qpmax=51 / qpstep=4 / cplxblur=20.0 / qblur=0.5 / ip_ratio=1.40 / aq=1:1.00
Language                                 : English
Default                                  : No
Forced                                   : No

Audio
ID                                       : 1
Format                                   : AC-3
Format/Info                              : Audio Coding 3
Mode extension                           : CM (complete main)
Codec ID                                 : A_AC3
Duration                                 : 1h 5mn
Bit rate mode                            : Constant
Bit rate                                 : 256 Kbps
Channel(s)                               : 6 channels
Channel positions                        : Front: L C R, Side: L R, LFE
Sampling rate                            : 48.0 KHz
Bit depth                                : 16 bits
Compression mode                         : Lossy
Stream size                              : 120 MiB (11%)
Language                                 : Russian
Default                                  : Yes
Forced                                   : No

перезалит 03.04.2015 в 12.12 pb.wtf



Скачать Неуловимые мстители через торрент http://pic1.kartinco.top/images/10/mojzq.jpg Скачать фильм Неуловимые мстители через торрент бесплантно в хорошем качестве Описание: Бывший гимназист Валерка, веселый отчаянный Яшка-цыган, оставшиеся сиротами Данька и его сестренка Ксанка дали клятву внедриться ... 10 10 21
Info! Золотая раздача, скачанное не засчитывается.
Торрент: Зарегистрирован [2015-04-03 07:09] · скачан: 126 раз
Статус: √ проверено
Размер: 4.37 GB
Как cкачать? Как скачать Неуловимые мстители через торрент | qTorrent



Последний раз редактировалось: 1980Артем1980 (2015-04-03 07:57), всего редактировалось 3 раз(а)


>> Регистрируемся здесь <<






Отзывы и комментарии о схеме читаем и пишем здесь: ---> Отзывы и комментарии о схеме

Новые благодарочки в телеграм довольных пользователей:
скриншот   скриншот   скриншот   скриншот   скриншот

03-04-2015 07:00 Неуловимые мстители Скачать торрент  

изображение картинки то хреньpb.wtf



03-04-2015 07:03 Неуловимые мстители Скачать торрент  

shurgan1980 писал(а):

изображение картинки то хрень

ну извините не 4Кpb.wtf



03-04-2015 08:20 Неуловимые мстители Скачать торрент  

крым крым крым pb.wtf



    Дорогой пользователь! Огромная просьба, поблагодарите релизера, оцените раздачу и оставьте свои комментарий, если Вы скачали Неуловимые мстители через торрент бесплатно! Внесите свою лепту в развитие PiratBit!
    Комментировать посты могут только пользователи прошедшие не сложную регистрацию
    Показать сообщения:    

    Неуловимые мстители через торрент
    Скачать бесплатно Неуловимые мстители
    Неуловимые мстители скачать торрент
    Неуловимые мстители смотреть онлайн
    Cкачать фильм Неуловимые мстители бесплатно
    Неуловимые мстители скачать торрент в хорошем качестве
    Неуловимые мстители смотреть онлайн бесплатно в хорошем качестве


    Вы не можете начинать темы
    Вы не можете отвечать на сообщения
    Вы не можете редактировать свои сообщения
    Вы не можете удалять свои сообщения
    Вы не можете голосовать в опросах
    Вы не можете прикреплять файлы к сообщениям
    Вы можете скачивать файлы